• -
  • -
  • done
  • Akiko Yano - Iroha ni Konpeitou (1977, 2019, Wewantsounds)
  • 235 MB
  • fiks22
  • Akiko Yano Iroha Konpeitou 1977 2019 Wewantsounds
  • Зарубежная поп-музыка

Description

Akiko Yano - Iroha ni Konpeitou

image

Жанр : JPop

Носитель : CD

Страна-производитель диска (релиза) : Франция

Год издания : 1977 (2019)

Издатель (лейбл) : Wewantsounds

Номер по каталогу : WWSCD18

Страна исполнителя (группы) : Япония

Аудиокодек : FLAC (*.flac)

Тип рипа : tracks+.cue

Продолжительность : 00:35:08

Источник : NoirBleuBlanc

Наличие сканов в содержимом раздачи : нет

Треклист :
01. Kawaji (0:58)
02. Iroha ni Konpeitou (3:02)
03. Machikutabirete (3:50)
04. Hourou (4:12)
05. Ike Yanagida (5:02)
06. Ai Ai Gasa (3:45)
07. Potsun (2:04)
08. Kinou wa Mou (4:36)
09. Ieji (3:30)
10. Yamase (Tong Poo) (4:09)

Лог создания рипа

`X Lossless Decoder version 20191004 (152.0)

XLD extraction logfile from 2019-12-05 03:16:31 +0100

矢野顕子 / いろはにこんぺいとう

Used drive : Apple SuperDrive (revision 2.03)
Media type : Pressed CD

Ripper mode : XLD Secure Ripper
Disable audio cache : OK for the drive with a cache less than 1375KiB
Make use of C2 pointers : NO
Read offset correction : 6
Max retry count : 100
Gap status : Analyzed, Appended (except HTOA)

TOC of the extracted CD
Track | Start | Length | Start sector | End sector


1 | 00:00:00 | 00:57:43 | 0 | 4317
2 | 00:57:43 | 03:02:33 | 4318 | 18000
3 | 04:00:01 | 03:50:16 | 18001 | 35266
4 | 07:50:17 | 04:11:65 | 35267 | 54156
5 | 12:02:07 | 05:02:32 | 54157 | 76838
6 | 17:04:39 | 03:45:35 | 76839 | 93748
7 | 20:49:74 | 02:04:13 | 93749 | 103061
8 | 22:54:12 | 04:35:58 | 103062 | 123744
9 | 27:29:70 | 03:30:14 | 123745 | 139508
10 | 31:00:09 | 04:08:55 | 139509 | 158163

List of alternate offset correction values
# | Absolute | Relative | Confidence


1 | 0 | -6 | 4

AccurateRip Summary (DiscID: 000c4f9b-0065b2a1-73083c0a)
Track 01 : OK (v2, confidence 2/6)
Track 02 : OK (v2, confidence 2/6)
Track 03 : OK (v2, confidence 2/6)
Track 04 : OK (v2, confidence 2/6)
Track 05 : OK (v2, confidence 2/6)
Track 06 : OK (v2, confidence 2/6)
Track 07 : OK (v2, confidence 2/6)
Track 08 : OK (v2, confidence 2/6)
Track 09 : OK (v2, confidence 2/6)
Track 10 : OK (v2, confidence 2/6)
->All tracks accurately ripped.

All Tracks
Album gain : -7.89 dB
Peak : 0.999969
Statistics
Read error : 0
Jitter error (maybe fixed) : 0
Retry sector count : 0
Damaged sector count : 0

Track 01
Filename : /Users/Shared/XLD_rips/矢野顕子 - いろはにこんぺいとう (1977) (FLAC)/01 KAWAJI.flac
Pre-gap length : 00:02:00

Track gain : -7.86 dB
Peak : 0.998993
CRC32 hash (test run) : AEE38326
CRC32 hash : AEE38326
CRC32 hash (skip zero) : 9ACF4350
AccurateRip v1 signature : D2FBDA46
AccurateRip v2 signature : C1F84970
->Accurately ripped (v2, confidence 2/6)
Statistics
Read error : 0
Jitter error (maybe fixed) : 0
Retry sector count : 0
Damaged sector count : 0

Track 02
Filename : /Users/Shared/XLD_rips/矢野顕子 - いろはにこんぺいとう (1977) (FLAC)/02 いろはにこんぺいとう.flac

Track gain : -7.44 dB
Peak : 0.999969
CRC32 hash (test run) : 1D94DA83
CRC32 hash : 1D94DA83
CRC32 hash (skip zero) : F279DEEA
AccurateRip v1 signature : 88312634
AccurateRip v2 signature : 399F7E52
->Accurately ripped (v2, confidence 2/6)
Statistics
Read error : 0
Jitter error (maybe fixed) : 0
Retry sector count : 0
Damaged sector count : 0

Track 03
Filename : /Users/Shared/XLD_rips/矢野顕子 - いろはにこんぺいとう (1977) (FLAC)/03 待ちくたびれて.flac

Track gain : -8.19 dB
Peak : 0.999969
CRC32 hash (test run) : 6FFE91CF
CRC32 hash : 6FFE91CF
CRC32 hash (skip zero) : D50BF467
AccurateRip v1 signature : C262F295
AccurateRip v2 signature : 891CE34D
->Accurately ripped (v2, confidence 2/6)
Statistics
Read error : 0
Jitter error (maybe fixed) : 0
Retry sector count : 0
Damaged sector count : 0

Track 04
Filename : /Users/Shared/XLD_rips/矢野顕子 - いろはにこんぺいとう (1977) (FLAC)/04 ほうろう.flac

Track gain : -9.44 dB
Peak : 0.999817
CRC32 hash (test run) : 929AA67A
CRC32 hash : 929AA67A
CRC32 hash (skip zero) : D46EF901
AccurateRip v1 signature : FBA3784C
AccurateRip v2 signature : 3CCC291A
->Accurately ripped (v2, confidence 2/6)
Statistics
Read error : 0
Jitter error (maybe fixed) : 0
Retry sector count : 0
Damaged sector count : 0

Track 05
Filename : /Users/Shared/XLD_rips/矢野顕子 - いろはにこんぺいとう (1977) (FLAC)/05 行け 柳田.flac
Pre-gap length : 00:03:09

Track gain : -8.08 dB
Peak : 0.999969
CRC32 hash (test run) : B16DEFA7
CRC32 hash : B16DEFA7
CRC32 hash (skip zero) : D9C574B2
AccurateRip v1 signature : 84248B71
AccurateRip v2 signature : C5146586
->Accurately ripped (v2, confidence 2/6)
Statistics
Read error : 0
Jitter error (maybe fixed) : 0
Retry sector count : 0
Damaged sector count : 0

Track 06
Filename : /Users/Shared/XLD_rips/矢野顕子 - いろはにこんぺいとう (1977) (FLAC)/06 相合傘.flac
Pre-gap length : 00:04:00

Track gain : -7.52 dB
Peak : 0.999847
CRC32 hash (test run) : 76FF3AE4
CRC32 hash : 76FF3AE4
CRC32 hash (skip zero) : BDD5EBD3
AccurateRip v1 signature : E4696119
AccurateRip v2 signature : 98DC7CCD
->Accurately ripped (v2, confidence 2/6)
Statistics
Read error : 0
Jitter error (maybe fixed) : 0
Retry sector count : 0
Damaged sector count : 0

Track 07
Filename : /Users/Shared/XLD_rips/矢野顕子 - いろはにこんぺいとう (1977) (FLAC)/07 ぽつん.flac
Pre-gap length : 00:01:10

Track gain : -8.01 dB
Peak : 0.999054
CRC32 hash (test run) : FCE4CA33
CRC32 hash : FCE4CA33
CRC32 hash (skip zero) : 4435E6E6
AccurateRip v1 signature : 5FE0453F
AccurateRip v2 signature : C311701D
->Accurately ripped (v2, confidence 2/6)
Statistics
Read error : 0
Jitter error (maybe fixed) : 0
Retry sector count : 0
Damaged sector count : 0

Track 08
Filename : /Users/Shared/XLD_rips/矢野顕子 - いろはにこんぺいとう (1977) (FLAC)/08 昨日はもう.flac

Track gain : -7.19 dB
Peak : 0.999725
CRC32 hash (test run) : A3327917
CRC32 hash : A3327917
CRC32 hash (skip zero) : 29114A85
AccurateRip v1 signature : AF2BF8F6
AccurateRip v2 signature : 49264C08
->Accurately ripped (v2, confidence 2/6)
Statistics
Read error : 0
Jitter error (maybe fixed) : 0
Retry sector count : 0
Damaged sector count : 0

Track 09
Filename : /Users/Shared/XLD_rips/矢野顕子 - いろはにこんぺいとう (1977) (FLAC)/09 家路.flac
Pre-gap length : 00:03:71

Track gain : -7.94 dB
Peak : 0.998810
CRC32 hash (test run) : 77F2DCAB
CRC32 hash : 77F2DCAB
CRC32 hash (skip zero) : D7F69CF1
AccurateRip v1 signature : 921F9F59
AccurateRip v2 signature : 1BBD54D3
->Accurately ripped (v2, confidence 2/6)
Statistics
Read error : 0
Jitter error (maybe fixed) : 0
Retry sector count : 0
Damaged sector count : 0

Track 10
Filename : /Users/Shared/XLD_rips/矢野顕子 - いろはにこんぺいとう (1977) (FLAC)/10 やませ(東風).flac

Track gain : -6.00 dB
Peak : 0.998779
CRC32 hash (test run) : CF646656
CRC32 hash : CF646656
CRC32 hash (skip zero) : 99B4976C
AccurateRip v1 signature : 918DDCB6
AccurateRip v2 signature : D85DDF5E
->Accurately ripped (v2, confidence 2/6)
Statistics
Read error : 0
Jitter error (maybe fixed) : 0
Retry sector count : 0
Damaged sector count : 0

No errors occurred

End of status report

-----BEGIN XLD SIGNATURE-----
Nfdj7x5UgrV60h3UNUJqJnCniHzDSeApUbUsOW2acl2fzzYetUuAOdOqFAYOi6irlg6DhfkRb54xHuLrJKmIqfDJ.GeQ4mzNGvx05.u
-----END XLD SIGNATURE----- `

Содержание индексной карты (.CUE)

TITLE "Iroha ni Konpeitou" PERFORMER "Akiko Yano" CATALOG 4988034206802 REM GENRE "JPop" REM DATE "1977" REM DISCID 73083C0A REM REPLAYGAIN_ALBUM_GAIN -7.89 dB REM REPLAYGAIN_ALBUM_PEAK 0.999969 FILE "01 - Kawaji.flac" WAVE TRACK 01 AUDIO TITLE "Kawaji" ISRC JPA301100107 REM REPLAYGAIN_TRACK_GAIN -7.86 dB REM REPLAYGAIN_TRACK_PEAK 0.998993 INDEX 01 00:00:00 FILE "02 - Iroha ni Konpeitou.flac" WAVE TRACK 02 AUDIO TITLE "Iroha ni Konpeitou" ISRC JPA301100108 REM REPLAYGAIN_TRACK_GAIN -7.44 dB REM REPLAYGAIN_TRACK_PEAK 0.999969 INDEX 01 00:00:00 FILE "03 - Machikutabirete.flac" WAVE TRACK 03 AUDIO TITLE "Machikutabirete" ISRC JPA301100109 REM REPLAYGAIN_TRACK_GAIN -8.19 dB REM REPLAYGAIN_TRACK_PEAK 0.999969 INDEX 01 00:00:00 FILE "04 - Hourou.flac" WAVE TRACK 04 AUDIO TITLE "Hourou" ISRC JPA301100110 REM REPLAYGAIN_TRACK_GAIN -9.44 dB REM REPLAYGAIN_TRACK_PEAK 0.999817 INDEX 01 00:00:00 TRACK 05 AUDIO TITLE "Ike Yanagida" ISRC JPA301100111 REM REPLAYGAIN_TRACK_GAIN -8.08 dB REM REPLAYGAIN_TRACK_PEAK 0.999969 INDEX 00 04:08:56 FILE "05 - Ike Yanagida.flac" WAVE INDEX 01 00:00:00 TRACK 06 AUDIO TITLE "Ai Ai Gasa" ISRC JPA301100112 REM REPLAYGAIN_TRACK_GAIN -7.52 dB REM REPLAYGAIN_TRACK_PEAK 0.999847 INDEX 00 04:58:32 FILE "06 - Ai Ai Gasa.flac" WAVE INDEX 01 00:00:00 TRACK 07 AUDIO TITLE "Potsun" ISRC JPA301100113 REM REPLAYGAIN_TRACK_GAIN -8.01 dB REM REPLAYGAIN_TRACK_PEAK 0.999054 INDEX 00 03:44:25 FILE "07 - Potsun.flac" WAVE INDEX 01 00:00:00 FILE "08 - Kinou wa Mou.flac" WAVE TRACK 08 AUDIO TITLE "Kinou wa Mou" ISRC JPA301100114 REM REPLAYGAIN_TRACK_GAIN -7.19 dB REM REPLAYGAIN_TRACK_PEAK 0.999725 INDEX 01 00:00:00 TRACK 09 AUDIO TITLE "Ieji" ISRC JPA301100115 REM REPLAYGAIN_TRACK_GAIN -7.94 dB REM REPLAYGAIN_TRACK_PEAK 0.998810 INDEX 00 04:31:62 FILE "09 - Ieji.flac" WAVE INDEX 01 00:00:00 FILE "10 - Yamase (Tong Poo).flac" WAVE TRACK 10 AUDIO TITLE "Yamase (Tong Poo)" ISRC JPA301100116 REM REPLAYGAIN_TRACK_GAIN -6.00 dB REM REPLAYGAIN_TRACK_PEAK 0.998779 INDEX 01 00:00:00

Отчет CUETools

`[CUETools log; Date: 15.02.2020 2:09:10; Version: 2.1.6]
[CTDB TOCID: wOY2DOdSzhxlAblA9_006jAsvEk-] found.
Track | CTDB Status
1 | (23/23) Accurately ripped
2 | (23/23) Accurately ripped
3 | (23/23) Accurately ripped
4 | (23/23) Accurately ripped
5 | (23/23) Accurately ripped
6 | (23/23) Accurately ripped
7 | (23/23) Accurately ripped
8 | (23/23) Accurately ripped
9 | (23/23) Accurately ripped
10 | (23/23) Accurately ripped
[AccurateRip ID: 000c4f9b-0065b2a1-73083c0a] found.
Track [CRC | V2] Status
01 d2fbda46|c1f84970 Accurately ripped
02 88312634|399f7e52 Accurately ripped
03 c262f295|891ce34d Accurately ripped
04 fba3784c|3ccc291a Accurately ripped
05 84248b71|c5146586 Accurately ripped
06 e4696119|98dc7ccd Accurately ripped
07 5fe0453f|c311701d Accurately ripped
08 af2bf8f6|49264c08 Accurately ripped
09 921f9f59|1bbd54d3 Accurately ripped
10 918ddcb6|d85ddf5e Accurately ripped
Offsetted by -6:
01 d17315c5 No match (V2 was not tested)
02 1f8ea9d2 No match (V2 was not tested)
03 b51390f0 No match (V2 was not tested)
04 354da0a2 No match (V2 was not tested)
05 b2d14745 No match (V2 was not tested)
06 75319911 No match (V2 was not tested)
07 66828347 No match (V2 was not tested)
08 01bd0e3c No match (V2 was not tested)
09 1fa78677 No match (V2 was not tested)
10 1e0e872c No match (V2 was not tested)

Track Peak [CRC32] [W/O NULL]
-- 100,0 [7DCC5EC9] [3F6B4DE0]
01 99,9 [AEE38326] [9ACF4350]
02 100,0 [1D94DA83] [F279DEEA]
03 100,0 [6FFE91CF] [D50BF467]
04 99,9 [929AA67A] [D46EF901]
05 100,0 [B16DEFA7] [D9C574B2]
06 99,9 [76FF3AE4] [BDD5EBD3]
07 99,9 [FCE4CA33] [4435E6E6]
08 99,9 [A3327917] [29114A85]
09 99,8 [77F2DCAB] [D7F69CF1]
10 99,8 [CF646656] [99B4976C] `

Об альбоме (сборнике)

AKIKO YANO'S CULT SECOND STUDIO ALBUM FROM 1977 FEATURING THE CREAM OF TOKYO AND NEW YORK MUSICIANS IN FUNK MODE
Wewantsounds continues its Akiko Yano reissue programme with the release of "Iroha Ni Konpeitou," another superb Akiko Yano album and one of her funkiest, highlighting her unmissable singing and songwriting talents. Recorded in Tokyo and New York City, the album features a superb line up of the best musicians from both cities including Haruomi Hosono, Shigeru Suzuki, Tatsuo Hayashi, Rick Marotta and Will Lee. It sees Yano mixing Japanese pop with funk and a touch of electronics, playing a wide array of keyboards programmed by YMO synth wizard Hideki Matsutake. This is the first time the album is released outside of Japan and this deluxe CD includes remastered sound and and booklet with lyrics and full line-up.


More at ibit.to
And ibit.uno
And ibit.am
And ibit.ws

Comments

Files

Akiko Yano - Iroha ni Konpeitou (1977, 2019, Wewantsounds)Artworkfront.jpg 259 kB
Akiko Yano - Iroha ni Konpeitou (1977, 2019, Wewantsounds)Artworkbooklet1.jpg 162 kB
Akiko Yano - Iroha ni Konpeitou (1977, 2019, Wewantsounds)Artworksticker.jpg 159 kB
Akiko Yano - Iroha ni Konpeitou (1977, 2019, Wewantsounds)Artworkbooklet5.jpg 141 kB
Akiko Yano - Iroha ni Konpeitou (1977, 2019, Wewantsounds)Artworkcd.jpg 138 kB
Akiko Yano - Iroha ni Konpeitou (1977, 2019, Wewantsounds)Artworkbooklet3.jpg 133 kB
Akiko Yano - Iroha ni Konpeitou (1977, 2019, Wewantsounds)Artworkback.jpg 132 kB
Akiko Yano - Iroha ni Konpeitou (1977, 2019, Wewantsounds)Artworkbooklet4.jpg 132 kB
Akiko Yano - Iroha ni Konpeitou (1977, 2019, Wewantsounds)Artworkbooklet2.jpg 125 kB
Akiko Yano - Iroha ni Konpeitou (1977, 2019, Wewantsounds)Artworkinlay.jpg 79 kB
Akiko Yano - Iroha ni Konpeitou (1977, 2019, Wewantsounds)05 - Ike Yanagida.flac 36 MB
Akiko Yano - Iroha ni Konpeitou (1977, 2019, Wewantsounds)08 - Kinou wa Mou.flac 30 MB
Akiko Yano - Iroha ni Konpeitou (1977, 2019, Wewantsounds)04 - Hourou.flac 28 MB
Akiko Yano - Iroha ni Konpeitou (1977, 2019, Wewantsounds)06 - Ai Ai Gasa.flac 26 MB
Akiko Yano - Iroha ni Konpeitou (1977, 2019, Wewantsounds)10 - Yamase (Tong Poo).flac 25 MB
Akiko Yano - Iroha ni Konpeitou (1977, 2019, Wewantsounds)03 - Machikutabirete.flac 25 MB
Akiko Yano - Iroha ni Konpeitou (1977, 2019, Wewantsounds)09 - Ieji.flac 23 MB
Akiko Yano - Iroha ni Konpeitou (1977, 2019, Wewantsounds)02 - Iroha ni Konpeitou.flac 20 MB
Akiko Yano - Iroha ni Konpeitou (1977, 2019, Wewantsounds)07 - Potsun.flac 14 MB
Akiko Yano - Iroha ni Konpeitou (1977, 2019, Wewantsounds)01 - Kawaji.flac 5.9 MB
Akiko Yano - Iroha ni Konpeitou (1977, 2019, Wewantsounds)folder.jpg 40 kB
Akiko Yano - Iroha ni Konpeitou (1977, 2019, Wewantsounds)Akiko Yano - Iroha ni Konpeitou.log 9.3 kB
Akiko Yano - Iroha ni Konpeitou (1977, 2019, Wewantsounds)Iroha ni Konpeitou.cue 2.2 kB
Akiko Yano - Iroha ni Konpeitou (1977, 2019, Wewantsounds)Iroha ni Konpeitou.accurip 2.2 kB
Akiko Yano - Iroha ni Konpeitou (1977, 2019, Wewantsounds)Akiko Yano - Iroha ni Konpeitou.m3u 226 B

Stream

Downloading Seeding Akiko Yano - Iroha ni Konpeitou (1977, 2019, Wewantsounds) from to 0 peers.
of
0 b/s / ↗0 b/s