• 1
  • -
  • done
ondemand_video
  • 6.Zatoichi And The Chest Of Gold DVD-9_Custom_Criterion#679
  • 4.8 GB
  • andrmaj132
  • Zatoichi Chest Gold DVD Custom Criterion 679
  • DVD Video
67%

Zatoichi and the Chest of Gold (1964)

  • Action Drama
  • Ichi travels to the village of Itakura to pay his respects at the grave of Kichizo, a man he killed two years ago. When some tax money is stolen while in transit to the governor he is accused and sets out to find the money and clear his name.

    Japanese

    Description

    Затойчи и сундук золота / Zatôichi senryô-kubi / Zatoichi And The Chest Of Gold / Criterion Collection#679

    image

    Страна :

    Япония

    Студия :

    Daiei Motion Picture Company.

    Жанр :Боевик, Драма, Приключения

    Год выпуска :1964

    Продолжительность :01:22:21

    Производство :

    The Criterion Collection#679

    Перевод 1 :Профессиональный (Двухголосый закадровый)

    Кармен Видео

    Перевод 2 :Одноголосый (закадровый)

    RussianGuy27

    Субтитры :Английские, Русские

    Кармен Видео

    Премьера (мир) :14.03.1964

    Режиссер :

    Казуо Икехиро / Kazuo Ikehiro

    В ролях:

    Синтаро Кацу, Сёго Симада, Микико Цубоути, Матико Хасэгава, Томисабуро Вакаяма, Тацуя Исигуро, Синдзиро Асано, Сабуро Датэ, Хикосабуро Катаока, Matasaburô Niwa

    Описание

    :

    Слепой меченосец Затоiчи направляется в одну из деревень провинции Итакура, дабы принести почести Кичицу — одному из своих достойнейших противников, которого он прикончил пару лет назад. Между тем, в деревне стряслась беда: пропал сундук денег, собранных жителями для уплаты налогов.

    Подозрение падает на Затоiчи и уважаемого им самурая Чуджи. Суровый воин просто обязан приступить к спасению репутаций. На этом пути он будет иметь дело с сестрой покойного Кичицу, с командой Чуджи, с коррумпированным губернатором провинции и его сторонниками…



    image image image



    Доп. информация

    :

    Исходник найден в сети.

    Огромное

    Спасибо

    Всем, без чьей помощи этот релиз не состоялся бы!

    Сценарий : Сёдзабуро Асаи, Акикадзу Ота, Кан Симодзава

    Продюсер : Хироши Одзава

    Оператор : Кадзуо Миягава

    Композитор : Итиро Саито

    Художник : Ёсинобу Нисиока

    Это интересно

    Кадзуо Икэхиро -https://en.wikipedia.org/wiki/Kazuo_Ikehiro

    Фильм

    - https://en.wikipedia.org/wiki/ZatoichiandtheChestof_Gold

    Софт

    PgcDemux 1.2.0.5 -> разделение компонентов диска на файлы.
    BeHappy - AC3 -> Wav.
    Sound Forge pro 10 -> синхронизация звука.
    Subsrc Workshop, MaestroSBT, DVD SubEdit (субтитры).
    MuxMan DVD authoring Professional -> мультиплексирование и авторинг.
    DVDRemake Pro 3.6.4 -> реавторинг DVD.
    DVD Shrink 3.2 -> Сэмпл.

    Меню :

    Английский, статичное, неозвученное.

    Тип релиза : DVD9 (Custom)

    Контейнер : DVD-Video

    Видео :

    NTSC 16:9 (720x480) VBR, Auto Letterboxed, 6483 Кбит/сек, 23,976 (24000/1001) кадра/сек

    Аудио 1 :

    Русский:AC3, 2 ch, 48.0 KHz, 192 Кбит/сек / Профессиональный (Двухголосый закадровый)

    Кармен Видео

    Аудио 2 :

    Русский:AC3, 2 ch, 48.0 KHz, 192 Кбит/сек / Одноголосый (закадровый)

    RussianGuy27

    Аудио 3 :

    Японский:AC3, 1 ch, 48.0 KHz, 384 Кбит/сек / Оригинал

    Формат субтитров : prerendered (DVD/IDX+SUB)

    Технические данные

    Dvd Info

    Title: 6.Zatoichi And The Chest Of Gold DVD-9CustomCriterion#679
    Size: 4.50 Gb (4 713 464,00 KBytes) - DVD-9
    Enabled regions: 1, 2, 3, 4, 5, 6, 7, 8

    VTS_01 :
    Play Length: 00:00:00
    Video: NTSC 16:9 (720x480) VBR, Auto Letterboxed

    VTS_02 :
    Play Length: 01:22:21
    Video: NTSC 16:9 (720x480) VBR, Auto Letterboxed
    Audio:
    Russian (Dolby AC3, 2 ch)
    Russian (Dolby AC3, 2 ch)
    Japanese (Dolby AC3, 1 ch)
    Subsrcs:
    English
    Russian

    VTS_03 :
    Play Length: 00:00:20
    Video: NTSC 16:9 (720x480) VBR, Auto Pan&Scan

    VTS_04 :
    Play Length: 00:00:00
    Video: NTSC 4:3 (720x480) VBR

    Mediainfo

    Общее
    Полное имя : F:6.Zatoichi And The Chest Of Gold DVD-9CustomCriterion#679VIDEOTSVTS02_1.VOB
    Формат : MPEG-PS
    Размер файла : 1024 Мбайт
    Продолжительность : 19 м. 21 с.
    Режим общего битрейта : Переменный
    Общий поток : 7399 Кбит/сек

    Видео
    Идентификатор : 224 (0xE0)
    Формат : MPEG Video
    Версия формата : Version 2
    Профиль формата : [email protected]
    Настройки формата : CustomMatrix / BVOP
    Параметр BVOP формата : Да
    Параметр матрицы формата : Выборочная
    Параметр GOP формата : Variable
    Продолжительность : 19 м. 21 с.
    Вид битрейта : Переменный
    Битрейт : 6483 Кбит/сек
    Максимальный битрейт : 9800 Кбит/сек
    Ширина : 720 пикселей
    Высота : 480 пикселей
    Соотношение сторон : 16:9
    Частота кадров : 23,976 (24000/1001) кадра/сек
    Цветовое пространство : YUV
    Субдискретизация насыщенности : 4:2:0
    Битовая глубина : 8 бит
    Тип развёртки : Прогрессивная
    Порядок развёртки : 2:3 Pulldown
    Метод сжатия : С потерями
    Бит/(Пиксели*Кадры) : 0.782
    Временной код первого кадра : 00:59:40:00
    Оригинал временного кода : Group of pictures header
    Размер потока : 897 Мбайт (88%)

    Аудио #1
    Идентификатор : 189 (0xBD)-128 (0x80)
    Формат : AC-3
    Формат/Информация : Audio Coding 3
    Коммерческое название : Dolby Digital
    Режим смешивания : DVD-Video
    Продолжительность : 19 м. 20 с.
    Вид битрейта : Постоянный
    Битрейт : 192 Кбит/сек
    Каналы : 2 канала
    ChannelLayout : L R
    Частота : 48,0 КГц
    Частота кадров : 31,250 кадров/сек (1536 SPF)
    Метод сжатия : С потерями
    Размер потока : 26,6 Мбайт (3%)
    ServiceKind/String : Complete Main

    Аудио #2
    Идентификатор : 189 (0xBD)-129 (0x81)
    Формат : AC-3
    Формат/Информация : Audio Coding 3
    Коммерческое название : Dolby Digital
    Режим смешивания : DVD-Video
    Продолжительность : 19 м. 20 с.
    Вид битрейта : Постоянный
    Битрейт : 192 Кбит/сек
    Каналы : 2 канала
    ChannelLayout : L R
    Частота : 48,0 КГц
    Частота кадров : 31,250 кадров/сек (1536 SPF)
    Метод сжатия : С потерями
    Размер потока : 26,6 Мбайт (3%)
    ServiceKind/String : Complete Main

    Аудио #3
    Идентификатор : 189 (0xBD)-130 (0x82)
    Формат : AC-3
    Формат/Информация : Audio Coding 3
    Коммерческое название : Dolby Digital
    Режим смешивания : DVD-Video
    Продолжительность : 19 м. 20 с.
    Вид битрейта : Постоянный
    Битрейт : 384 Кбит/сек
    Каналы : 1 канал
    ChannelLayout : C
    Частота : 48,0 КГц
    Частота кадров : 31,250 кадров/сек (1536 SPF)
    Метод сжатия : С потерями
    Размер потока : 53,1 Мбайт (5%)
    ServiceKind/String : Complete Main

    Текст #1
    Идентификатор : 189 (0xBD)-32 (0x20)
    Формат : RLE
    Формат/Информация : Run-length encoding
    Режим смешивания : DVD-Video

    Текст #2
    Идентификатор : 189 (0xBD)-33 (0x21)
    Формат : RLE
    Формат/Информация : Run-length encoding
    Режим смешивания : DVD-Video

    Текст #3
    Идентификатор : 189 (0xBD)-34 (0x22)
    Формат : RLE
    Формат/Информация : Run-length encoding
    Режим смешивания : DVD-Video

    Скриншоты

    Скриншоты меню

    image image image image

    Скриншоты фильма

    image image image image image

    Релиз: image

    Уважаемые пользователи!

    Найдите пару минут поблагодарить релизера и высказаться в топике раздачи.

    Ваше мнение - бальзам для раздающего и пища для ума остальным пользователям. Мои раздачи


    More at ibit.to
    And ibit.uno
    And ibit.am
    And ibit.ws

    Reviews

    Comments

    Files

    6.Zatoichi And The Chest Of Gold DVD-9_Custom_Criterion#679VIDEO_TSVIDEO_TS.BUP 12 kB
    6.Zatoichi And The Chest Of Gold DVD-9_Custom_Criterion#679VIDEO_TSVIDEO_TS.IFO 12 kB
    6.Zatoichi And The Chest Of Gold DVD-9_Custom_Criterion#679VIDEO_TSVTS_01_0.BUP 27 kB
    6.Zatoichi And The Chest Of Gold DVD-9_Custom_Criterion#679VIDEO_TSVTS_01_0.IFO 27 kB
    6.Zatoichi And The Chest Of Gold DVD-9_Custom_Criterion#679VIDEO_TSVTS_01_0.VOB 537 kB
    6.Zatoichi And The Chest Of Gold DVD-9_Custom_Criterion#679VIDEO_TSVTS_01_1.VOB 14 kB
    6.Zatoichi And The Chest Of Gold DVD-9_Custom_Criterion#679VIDEO_TSVTS_02_0.BUP 74 kB
    6.Zatoichi And The Chest Of Gold DVD-9_Custom_Criterion#679VIDEO_TSVTS_02_0.IFO 74 kB
    6.Zatoichi And The Chest Of Gold DVD-9_Custom_Criterion#679VIDEO_TSVTS_02_0.VOB 115 kB
    6.Zatoichi And The Chest Of Gold DVD-9_Custom_Criterion#679VIDEO_TSVTS_02_1.VOB 1.1 GB
    6.Zatoichi And The Chest Of Gold DVD-9_Custom_Criterion#679VIDEO_TSVTS_02_2.VOB 1.1 GB
    6.Zatoichi And The Chest Of Gold DVD-9_Custom_Criterion#679VIDEO_TSVTS_02_3.VOB 1.1 GB
    6.Zatoichi And The Chest Of Gold DVD-9_Custom_Criterion#679VIDEO_TSVTS_02_4.VOB 1.1 GB
    6.Zatoichi And The Chest Of Gold DVD-9_Custom_Criterion#679VIDEO_TSVTS_02_5.VOB 527 MB
    6.Zatoichi And The Chest Of Gold DVD-9_Custom_Criterion#679VIDEO_TSVTS_03_0.BUP 20 kB
    6.Zatoichi And The Chest Of Gold DVD-9_Custom_Criterion#679VIDEO_TSVTS_03_0.IFO 20 kB
    6.Zatoichi And The Chest Of Gold DVD-9_Custom_Criterion#679VIDEO_TSVTS_03_0.VOB 106 kB
    6.Zatoichi And The Chest Of Gold DVD-9_Custom_Criterion#679VIDEO_TSVTS_03_1.VOB 2.9 MB
    6.Zatoichi And The Chest Of Gold DVD-9_Custom_Criterion#679VIDEO_TSVTS_04_0.BUP 25 kB
    6.Zatoichi And The Chest Of Gold DVD-9_Custom_Criterion#679VIDEO_TSVTS_04_0.IFO 25 kB
    6.Zatoichi And The Chest Of Gold DVD-9_Custom_Criterion#679VIDEO_TSVTS_04_0.VOB 506 kB
    6.Zatoichi And The Chest Of Gold DVD-9_Custom_Criterion#679VIDEO_TSVTS_04_1.VOB 14 kB

    Stream

    Downloading Seeding 6.Zatoichi And The Chest Of Gold DVD-9_Custom_Criterion#679 from to 0 peers.
    of
    0 b/s / ↗0 b/s