• 11
  • 61
  • done
ondemand_video
0%

Naked: Naked(2020)

  • Drama Soap Comedy
  • Turkish

    Description

    **https://MovCr.st

    image

    image

    Naked (2020) 720p S01 Complete [Hindi + Tamil + Telugu] MX WEB-DL x264 - 1.9GB - MOVCR

    image

    image

    IMDB Link : https://www.imdb.com/title/tt12032242/

    Plot :

    Seductive killer or innocent victim? A murder mystery like no other.

    image

    Video

    ID                          : 1

    Format                      : AVC

    Format/Info                 : Advanced Video Codec

    Format profile              : [email protected]

    Format settings             : 2 Ref Frames

    Format settings, CABAC      : No

    Format settings, Reference  : 2 frames

    Codec ID                    : V_MPEG4/ISO/AVC

    Duration                    : 17 min 9 s

    Bit rate                    : 2 550 kb/s

    Width                       : 1 280 pixels

    Height                      : 720 pixels

    Display aspect ratio        : 16:9

    Frame rate mode             : Constant

    Frame rate                  : 25.000 FPS

    Color space                 : YUV

    Chroma subsampling          : 4:2:0

    Bit depth                   : 8 bits

    Scan type                   : Progressive

    Bits/(Pixel*Frame)          : 0.111

    Stream size                 : 326 MiB (93%)

    Title                       : www.MovCr.st

    Writing library             : x264 core 157 r2969 d4099dd

    Language                    : English

    Default                     : Yes

    Forced                      : No

    Audio #1

    ID                          : 2

    Format                      : AAC LC

    Format/Info                 : Advanced Audio Codec Low Complexity

    Codec ID                    : A_AAC-2

    Duration                    : 17 min 8 s

    Bit rate                    : 64.2 kb/s

    Channel(s)                  : 2 channels

    Channel layout              : L R

    Sampling rate               : 48.0 kHz

    Frame rate                  : 46.875 FPS (1024 SPF)

    Compression mode            : Lossy

    Delay relative to video     : -21 ms

    Stream size                 : 7.87 MiB (2%)

    Language                    : Hindi

    Default                     : Yes

    Forced                      : No

    Audio #2

    ID                          : 3

    Format                      : AAC LC

    Format/Info                 : Advanced Audio Codec Low Complexity

    Codec ID                    : A_AAC-2

    Duration                    : 17 min 9 s

    Bit rate                    : 64.2 kb/s

    Channel(s)                  : 2 channels

    Channel layout              : L R

    Sampling rate               : 48.0 kHz

    Frame rate                  : 46.875 FPS (1024 SPF)

    Compression mode            : Lossy

    Delay relative to video     : -21 ms

    Stream size                 : 7.87 MiB (2%)

    Language                    : Tamil

    Default                     : No

    Forced                      : No

    Audio #3

    ID                          : 4

    Format                      : AAC LC

    Format/Info                 : Advanced Audio Codec Low Complexity

    Codec ID                    : A_AAC-2

    Duration                    : 17 min 9 s

    Bit rate                    : 64.2 kb/s

    Channel(s)                  : 2 channels

    Channel layout              : L R

    Sampling rate               : 48.0 kHz

    Frame rate                  : 46.875 FPS (1024 SPF)

    Compression mode            : Lossy

    Delay relative to video     : -21 ms

    Stream size                 : 7.88 MiB (2%)

    Language                    : Telugu

    Default                     : No

    Forced                      : No

    image

     image image image image image image image image image image image image image image image image image image image**


    More at ibit.to
    And ibit.uno
    And ibit.am
    And ibit.ws

    Reviews

    Comments

    Files

    Torrent_Downloaded_From_www.MovCr.st.txt 218 B
    Visit Us @ www.MovCr.st.url 119 B
    www.MovCr.st - Naked Season 1 Ep01 - The Murder.mkv 230 MB
    www.MovCr.st - Naked Season 1 Ep02 - Love Vs Duty.mkv 195 MB
    www.MovCr.st - Naked Season 1 Ep03 - Did she, did she not.mkv 156 MB
    www.MovCr.st - Naked Season 1 Ep04 - Down the Memory Lane.mkv 176 MB
    www.MovCr.st - Naked Season 1 Ep05 - Dangerous Love.mkv 178 MB
    www.MovCr.st - Naked Season 1 Ep06 - Crossroads.mkv 179 MB
    www.MovCr.st - Naked Season 1 Ep07 - Broken Trust.mkv 155 MB
    www.MovCr.st - Naked Season 1 Ep08 - Ace up the sleeve.mkv 164 MB
    www.MovCr.st - Naked Season 1 Ep09 - The beginning of the end.mkv 159 MB
    www.MovCr.st - Naked Season 1 Ep10 - Russian Roulette.mkv 350 MB

    Stream

    Downloading Seeding [www.MovCr.st] - Naked (2020) 720p S01 Complete [Hindi + Tamil + Telugu] MX WEB-DL x264 - 1.9GB - MOVCR from to 0 peers.
    of
    0 b/s / ↗0 b/s