• 0
  • 0
  • done
Anonymous Download
  • [TR24][OF] Post Malone - Stoney (Deluxe Edition) - 2016 (Hip-Hop)
  • 783 MB
  • most hated
  • TR24 Post Malone Stoney Deluxe Edition 2016 Hip Hop
  • Hi-Res stereo и многоканальная
Warning! Use a VPN When Downloading Torrents!
Your IP Address is ,
Your Internet Provider can see when you download torrents! Hide your IP ADDRESS with a VPN
We strongly recommend Trust.Zone VPN to hide your torrenting. It's FREE!
DOWNLOAD VPN

Description

Post Malone / Stoney

image

Жанр : Hip-Hop

Носитель : WEB

Страна-производитель диска (релиза) : USA

Год издания : 2016

Издатель (лейбл) : Republic Records

Номер по каталогу : B0026056-02

Страна исполнителя (группы) : USA

Аудиокодек : FLAC (*.flac)

Тип рипа : tracks

Битрейт аудио : lossless

Продолжительность : 01:08:14

Источник (релизер) : https://www.prostudiomasters.com/album/page/11134

Наличие сканов в содержимом раздачи : да

Треклист :
01. Broken Whiskey Glass (3:54)
02. Big Lie (3:28)
03. Deja Vu (Feat. Justin Bieber) (3:54)
04. No Option (3:00)
05. Cold (4:29)
06. White Iverson (4:17)
07. I Fall Apart (3:43)
08. Patient (3:14)
09. Go Flex (3:00)
10. Feel (Feat. Kehlani) (3:17)
11. Too Young (3:57)
12. Congratulations (Feat. Quavo) (3:40)
13. Up There (3:15)
14. Yours Truly, Austin Post (3:39)
15. Leave (5:25)
16. Hit This Hard (4:09)
17. Money Made Me Do It (Feat. 2 Chainz) (3:45)
18. Feeling Whitney (4:17)

Замер динамического диапазона

`foobar2000 1.3.16 / Замер динамического диапазона (DR) 1.1.1
Дата отчёта: 2018-04-28 12:24:49


Анализ: Post Malone / Stoney (Deluxe Edition)
DR Пики RMS Продолжительность трека

DR4 0.00 дБ -6.97 дБ 3:54 01/18-Broken Whiskey Glass
DR4 0.00 дБ -6.32 дБ 3:28 02/18-Big Lie
DR5 0.00 дБ -7.10 дБ 3:54 03/18-Deja Vu (feat. Justin Bieber)
DR6 0.00 дБ -8.35 дБ 3:00 04/18-No Option
DR5 0.00 дБ -7.69 дБ 4:29 05/18-Cold
DR6 0.00 дБ -8.05 дБ 4:17 06/18-White Iverson
DR4 0.00 дБ -7.64 дБ 3:43 07/18-I Fall Apart
DR7 0.00 дБ -9.30 дБ 3:14 08/18-Patient
DR5 0.00 дБ -7.72 дБ 3:00 09/18-Go Flex
DR5 0.00 дБ -7.14 дБ 3:17 10/18-Feel (feat. Kehlani)
DR6 0.00 дБ -8.01 дБ 3:57 11/18-Too Young
DR4 0.00 дБ -6.72 дБ 3:40 12/18-Congratulations (feat. Quavo)
DR6 0.00 дБ -8.30 дБ 3:15 13/18-Up There
DR4 0.00 дБ -6.73 дБ 3:39 14/18-Yours Truly, Austin Post
DR6 0.00 дБ -7.82 дБ 5:25 15/18-Leave
DR5 0.00 дБ -7.93 дБ 4:09 16/18-Hit This Hard
DR6 0.00 дБ -8.72 дБ 3:45 17/18-Money Made Me Do It (feat. 2 Chainz)

DR8 0.00 дБ -11.81 дБ 4:17 18/18-Feeling Whitney

Количество треков: 18
Реальные значения DR: DR5

Частота: 44100 Гц
Каналов: 2
Разрядность: 24
Битрейт: 1399 кбит/с
Кодек: FLAC
================================================================================ `


More at ibit.to
And ibit.uno
And ibit.ws

Comments

1 year ago

Most Hated писал(а): 75260784kayander На раздаче)) странно. за 5 часов так и не начало качать

1 year ago

kayander Бывает, что никто зацепиться не может

1 year ago

Most Hated, предоставьте, пожалуйста, ссылку на официальный источник, который подтверждает существование данного релиза. Официальными источниками являются сайт лейбла, интернет-магазина (junodownload, beatport) и тому подобные.Ссылку следует поместить в оформление раздачи.

1 year ago

сомнительно У большинства треков низкие значения динамического диапазона DR5, вероятен клиппинг

Files

Stream

Downloading Seeding [TR24][OF] Post Malone - Stoney (Deluxe Edition) - 2016 (Hip-Hop) from to 0 peers.
of
0 b/s / ↗0 b/s