• -
  • 11
  • done
Anonymous Downloadondemand_video
Warning! Use a VPN When Downloading Torrents!
Your IP Address is ,
Your Internet Provider can see when you download torrents! Hide your IP ADDRESS with a VPN
We strongly recommend hide.me VPN to hide your torrenting. It's FREE!
DOWNLOAD VPN

Description

Format : Matroska Format version : Version 4 File size : 534 MiB Duration : 24 min 12 s Overall bit rate mode : Variable Overall bit rate : 3 083 kb/s Encoded date : UTC 2019-11-08 15:41:59 Writing application : mkvmerge v38.0.0 ('The Silent Type') 64-bit Writing library : libebml v1.3.9 + libmatroska v1.5.2 Attachments : Blokletters-Balpen.ttf / COPILB.ttf / Diverda Sans Com Medium Italics.ttf / Diverda Sans Com Medium.ttf / FuckMyr v9001.ttf / Senran gothic ep.ttf / Yryr minc R.ttf

Video ID : 1 Format : AVC Format/Info : Advanced Video Codec Format profile : [email protected] Format settings : CABAC / 4 Ref Frames Format settings, CABAC : Yes Format settings, ReFrames : 4 frames Codec ID : VMPEG4/ISO/AVC Duration : 24 min 11 s Bit rate : 1 524 kb/s Width : 1 920 pixels Height : 1 080 pixels Display aspect ratio : 16:9 Frame rate mode : Constant Frame rate : 23.976 (23976/1000) FPS Color space : YUV Chroma subsampling : 4:2:0 Bit depth : 8 bits Scan type : Progressive Bits/(Pixel*Frame) : 0.031 Stream size : 264 MiB (49%) Title : [TOPKEK] Writing library : x264 core 148 Encoding settings : cabac=1 / ref=3 / deblock=1:0:0 / analyse=0x3:0x113 / me=hex / subme=7 / psy=1 / psyrd=1.00:0.00 / mixedref=1 / merange=16 / chromame=1 / trellis=1 / 8x8dct=1 / cqm=0 / deadzone=21,11 / fastpskip=1 / chromaqpoffset=-2 / threads=34 / lookaheadthreads=5 / slicedthreads=0 / nr=0 / decimate=1 / interlaced=0 / bluraycompat=0 / constrainedintra=0 / bframes=3 / bpyramid=2 / badapt=1 / bbias=0 / direct=1 / weightb=1 / opengop=0 / weightp=2 / keyint=90 / keyintmin=9 / scenecut=0 / intrarefresh=0 / rclookahead=40 / rc=crf / mbtree=1 / crf=22.0 / qcomp=0.60 / qpmin=0 / qpmax=69 / qpstep=4 / vbvmaxrate=13500 / vbvbufsize=135000 / crfmax=0.0 / nalhrd=none / filler=0 / ipratio=1.40 / aq=1:1.00 Default : Yes Forced : No

Audio #1 ID : 2 Format : AAC LC Format/Info : Advanced Audio Codec Low Complexity Codec ID : A_AAC-2 Duration : 24 min 11 s Bit rate : 159 kb/s Channel(s) : 2 channels Channel layout : L R Sampling rate : 48.0 kHz Frame rate : 46.875 FPS (1024 SPF) Compression mode : Lossy Delay relative to video : 9 ms Stream size : 27.6 MiB (5%) Title : English Language : English Default : Yes Forced : No

Audio #2 ID : 3 Format : FLAC Format/Info : Free Lossless Audio Codec Codec ID : A_FLAC Duration : 24 min 10 s Bit rate mode : Variable Bit rate : 1 398 kb/s Channel(s) : 2 channels Channel layout : L R Sampling rate : 48.0 kHz Frame rate : 11.719 FPS (4096 SPF) Bit depth : 24 bits Compression mode : Lossless Stream size : 242 MiB (45%) Title : Japanese Writing library : libFLAC 1.2.1 (UTC 2007-09-17) Language : Japanese Default : No Forced : No

Text ID : 4 Format : ASS Codec ID : S_TEXT/ASS Codec ID/Info : Advanced Sub Station Alpha Duration : 23 min 55 s Bit rate : 159 b/s Count of elements : 400 Compression mode : Lossless Stream size : 28.0 KiB (0%) Title : English Language : English Default : No Forced : No


More at ibit.to
And ibit.uno
And ibit.ws

Comments

Files

[TOPKEK] My Teenage Romantic Comedy SNAFU (Yahari Ore no Seishun LoveCome wa Machigatte Iru) - S01E06 [1080p] [x264 AAC] [Dual Audio].mkv 534 MB

Stream

Downloading Seeding [TOPKEK] My Teenage Romantic Comedy SNAFU (Yahari Ore no Seishun LoveCome wa Machigatte Iru) - S01E06 [1080p] [x264 AAC] [Dual Audio] from to 0 peers.
of
0 b/s / ↗0 b/s