• 2
  • 24
  • done
Anonymous Downloadondemand_video
  • [TOPKEK] Fire Force (Enen no Shouboutai) - S01E16 - [1080p] [x264 AAC] [English Dub]
  • 1.3 GB
  • kekmasters
  • TOPKEK Force Enen Shouboutai S01E16 1080p x264 AAC English Dub
  • Anime - English-translated
Warning! Use a VPN When Downloading Torrents!
Your IP Address is ,
Your Internet Provider can see when you download torrents! Hide your IP ADDRESS with a VPN
We strongly recommend hide.me VPN to hide your torrenting. It's FREE!
DOWNLOAD VPN
65%

Fire Force: We Are Family(2019)

  • 1 16
  • Animation Action & Adventure Drama Sci-Fi & Fantasy
  • Vulcan teaches Yu a lesson in the importance of forging things that cannot be broken, and his hope to create similarly unbreakable family ties. Sensing a threat to Vulcan, the members of Company 8 take up positions to keep him safe.

    expand_more
    Japanese

    Description

    Format : Matroska Format version : Version 4 File size : 1.31 GiB Duration : 24 min 14 s Overall bit rate : 7 765 kb/s Encoded date : UTC 2019-11-08 17:49:58 Writing application : mkvmerge v38.0.0 ('The Silent Type') 64-bit Writing library : libebml v1.3.9 + libmatroska v1.5.2

    Video ID : 1 Format : AVC Format/Info : Advanced Video Codec Format profile : [email protected] Format settings : CABAC / 4 Ref Frames Format settings, CABAC : Yes Format settings, ReFrames : 4 frames Codec ID : VMPEG4/ISO/AVC Duration : 24 min 13 s Bit rate : 7 509 kb/s Nominal bit rate : 8 000 kb/s Width : 1 920 pixels Height : 1 080 pixels Display aspect ratio : 16:9 Frame rate mode : Constant Frame rate : 23.976 (24000/1001) FPS Color space : YUV Chroma subsampling : 4:2:0 Bit depth : 8 bits Scan type : Progressive Bits/(Pixel*Frame) : 0.151 Stream size : 1.27 GiB (97%) Title : [TOPKEK] Writing library : x264 core 157 r2948 dada181 Encoding settings : cabac=1 / ref=1 / deblock=1:0:0 / analyse=0x3:0x113 / me=hex / subme=7 / psy=1 / psyrd=1.00:0.00 / mixedref=0 / merange=16 / chromame=1 / trellis=1 / 8x8dct=1 / cqm=0 / deadzone=21,11 / fastpskip=1 / chromaqpoffset=-2 / threads=24 / lookaheadthreads=4 / slicedthreads=0 / nr=0 / decimate=1 / interlaced=0 / bluraycompat=0 / constrainedintra=0 / bframes=2 / bpyramid=2 / badapt=1 / bbias=0 / direct=1 / weightb=1 / opengop=0 / weightp=2 / keyint=48 / keyintmin=4 / scenecut=40 / intrarefresh=0 / rclookahead=40 / rc=cbr / mbtree=1 / bitrate=8000 / ratetol=1.0 / qcomp=0.60 / qpmin=0 / qpmax=69 / qpstep=4 / vbvmaxrate=8000 / vbvbufsize=24000 / nalhrd=none / filler=0 / ip_ratio=1.40 / aq=1:1.00 Default : Yes Forced : No

    Audio ID : 2 Format : AAC LC Format/Info : Advanced Audio Codec Low Complexity Codec ID : A_AAC-2 Duration : 24 min 14 s Bit rate : 253 kb/s Channel(s) : 2 channels Channel layout : L R Sampling rate : 48.0 kHz Frame rate : 46.875 FPS (1024 SPF) Compression mode : Lossy Delay relative to video : -43 ms Stream size : 43.9 MiB (3%) Title : English Language : English Default : Yes Forced : No


    More at ibit.to
    And ibit.uno
    And ibit.ws

    Reviews

    Comments

    Files

    [TOPKEK] Fire Force (Enen no Shouboutai) - S01E16 - [1080p] [x264 AAC] [English Dub].mkv 1.3 GB

    Stream

    Downloading Seeding [TOPKEK] Fire Force (Enen no Shouboutai) - S01E16 - [1080p] [x264 AAC] [English Dub] from to 0 peers.
    of
    0 b/s / ↗0 b/s