• 1
  • 13
  • done
Anonymous Downloadondemand_video
Warning! Use a VPN When Downloading Torrents!
Your IP Address is ,
Your Internet Provider can see when you download torrents! Hide your IP ADDRESS with a VPN
We strongly recommend hide.me VPN to hide your torrenting. It's FREE!
DOWNLOAD VPN

Description

Format : Matroska Format version : Version 4 File size : 1.33 GiB Duration : 23 min 57 s Overall bit rate : 7 940 kb/s Encoded date : UTC 2019-11-10 16:29:20 Writing application : mkvmerge v38.0.0 ('The Silent Type') 64-bit Writing library : libebml v1.3.9 + libmatroska v1.5.2 Attachments : OpenSans-Semibold.ttf

Video ID : 1 Format : AVC Format/Info : Advanced Video Codec Format profile : [email protected] Format settings : CABAC / 4 Ref Frames Format settings, CABAC : Yes Format settings, ReFrames : 4 frames Codec ID : VMPEG4/ISO/AVC Duration : 23 min 57 s Bit rate : 7 430 kb/s Nominal bit rate : 8 000 kb/s Width : 1 920 pixels Height : 1 080 pixels Display aspect ratio : 16:9 Frame rate mode : Constant Frame rate : 23.976 (24000/1001) FPS Color space : YUV Chroma subsampling : 4:2:0 Bit depth : 8 bits Scan type : Progressive Bits/(Pixel*Frame) : 0.149 Stream size : 1.24 GiB (94%) Title : [TOPKEK] Writing library : x264 core 157 r2948 dada181 Encoding settings : cabac=1 / ref=1 / deblock=1:0:0 / analyse=0x3:0x113 / me=hex / subme=7 / psy=1 / psyrd=1.00:0.00 / mixedref=0 / merange=16 / chromame=1 / trellis=1 / 8x8dct=1 / cqm=0 / deadzone=21,11 / fastpskip=1 / chromaqpoffset=-2 / threads=24 / lookaheadthreads=4 / slicedthreads=0 / nr=0 / decimate=1 / interlaced=0 / bluraycompat=0 / constrainedintra=0 / bframes=2 / bpyramid=2 / badapt=1 / bbias=0 / direct=1 / weightb=1 / opengop=0 / weightp=2 / keyint=48 / keyintmin=4 / scenecut=40 / intrarefresh=0 / rclookahead=40 / rc=cbr / mbtree=1 / bitrate=8000 / ratetol=1.0 / qcomp=0.60 / qpmin=0 / qpmax=69 / qpstep=4 / vbvmaxrate=8000 / vbvbufsize=24000 / nalhrd=none / filler=0 / ip_ratio=1.40 / aq=1:1.00 Default : Yes Forced : No

Audio #1 ID : 2 Format : AAC LC Format/Info : Advanced Audio Codec Low Complexity Codec ID : A_AAC-2 Duration : 23 min 57 s Bit rate : 253 kb/s Channel(s) : 2 channels Channel layout : L R Sampling rate : 48.0 kHz Frame rate : 46.875 FPS (1024 SPF) Compression mode : Lossy Delay relative to video : -43 ms Stream size : 43.4 MiB (3%) Title : English Language : English Default : Yes Forced : No

Audio #2 ID : 3 Format : AAC LC Format/Info : Advanced Audio Codec Low Complexity Codec ID : A_AAC-2 Duration : 23 min 52 s Bit rate : 253 kb/s Channel(s) : 2 channels Channel layout : L R Sampling rate : 48.0 kHz Frame rate : 46.875 FPS (1024 SPF) Compression mode : Lossy Delay relative to video : -43 ms Stream size : 43.3 MiB (3%) Title : Japanese Language : Japanese Default : No Forced : No

Text ID : 4 Format : ASS Codec ID : S_TEXT/ASS Codec ID/Info : Advanced Sub Station Alpha Duration : 23 min 34 s Bit rate : 96 b/s Count of elements : 310 Compression mode : Lossless Stream size : 16.6 KiB (0%) Title : English Language : English Default : No Forced : No


More at ibit.to
And ibit.uno
And ibit.am
And ibit.ws

Comments

Files

[TOPKEK] Fate Grand Order - Absolute Demonic Front Babylonia - S01E01 - [1080p] [x264 AAC] [Dual Audio].mkv 1.3 GB

Stream

Downloading Seeding [TOPKEK] Fate Grand Order - Absolute Demonic Front Babylonia - S01E01 - [1080p] [x264 AAC] [Dual Audio] from to 0 peers.
of
0 b/s / ↗0 b/s