• 1
  • 6
  • done
Anonymous Downloadondemand_video
  • [TOPKEK] Azur Lane - S01E04 - [1080p] [x264 AAC] [Dual Audio]
  • 1.4 GB
  • kekmasters
  • TOPKEK Azur Lane S01E04 1080p x264 AAC Dual Audio
  • Anime - English-translated
Warning! Use a VPN When Downloading Torrents!
Your IP Address is ,
Your Internet Provider can see when you download torrents! Hide your IP ADDRESS with a VPN
We strongly recommend hide.me VPN to hide your torrenting. It's FREE!
DOWNLOAD VPN
57%

Azur Lane: SAKURA - Cloak and Dagger(2019)

  • 1 4
  • Action & Adventure Sci-Fi & Fantasy
  • After their successful strike against Azur Lane forces, the Red Axis fleet returns to Sakura Empire. Akagi checks in on the progress of her grand plans, and Ayanami regroups with her peers and reflects on the battles she just fought.

    expand_more
    Japanese

    Description

    Format : Matroska Format version : Version 4 File size : 1.37 GiB Duration : 23 min 58 s Overall bit rate : 8 201 kb/s Encoded date : UTC 2019-11-08 18:23:17 Writing application : mkvmerge v38.0.0 ('The Silent Type') 64-bit Writing library : libebml v1.3.9 + libmatroska v1.5.2 Attachments : OpenSans-Semibold.ttf

    Video ID : 2 Format : AVC Format/Info : Advanced Video Codec Format profile : [email protected] Format settings : CABAC / 4 Ref Frames Format settings, CABAC : Yes Format settings, ReFrames : 4 frames Codec ID : VMPEG4/ISO/AVC Duration : 23 min 58 s Bit rate : 8 000 kb/s Width : 1 920 pixels Height : 1 080 pixels Display aspect ratio : 16:9 Frame rate mode : Constant Frame rate : 23.976 (24000/1001) FPS Color space : YUV Chroma subsampling : 4:2:0 Bit depth : 8 bits Scan type : Progressive Bits/(Pixel*Frame) : 0.161 Stream size : 1.29 GiB (94%) Title : [TOPKEK] Writing library : x264 core 157 r2948 dada181 Encoding settings : cabac=1 / ref=1 / deblock=1:0:0 / analyse=0x3:0x113 / me=hex / subme=7 / psy=1 / psyrd=1.00:0.00 / mixedref=0 / merange=16 / chromame=1 / trellis=1 / 8x8dct=1 / cqm=0 / deadzone=21,11 / fastpskip=1 / chromaqpoffset=-2 / threads=24 / lookaheadthreads=4 / slicedthreads=0 / nr=0 / decimate=1 / interlaced=0 / bluraycompat=0 / constrainedintra=0 / bframes=2 / bpyramid=2 / badapt=1 / bbias=0 / direct=1 / weightb=1 / opengop=0 / weightp=2 / keyint=48 / keyintmin=4 / scenecut=40 / intrarefresh=0 / rclookahead=40 / rc=cbr / mbtree=1 / bitrate=8000 / ratetol=1.0 / qcomp=0.60 / qpmin=0 / qpmax=69 / qpstep=4 / vbvmaxrate=8000 / vbvbufsize=24000 / nalhrd=none / filler=0 / ip_ratio=1.40 / aq=1:1.00 Default : Yes Forced : No

    Audio #1 ID : 1 Format : AAC LC Format/Info : Advanced Audio Codec Low Complexity Codec ID : A_AAC-2 Duration : 23 min 58 s Bit rate : 253 kb/s Channel(s) : 2 channels Channel layout : L R Sampling rate : 48.0 kHz Frame rate : 46.875 FPS (1024 SPF) Compression mode : Lossy Delay relative to video : -42 ms Stream size : 43.4 MiB (3%) Title : English Language : English Default : Yes Forced : No

    Audio #2 ID : 3 Format : AAC LC Format/Info : Advanced Audio Codec Low Complexity Codec ID : A_AAC-2 Duration : 23 min 58 s Bit rate : 253 kb/s Channel(s) : 2 channels Channel layout : L R Sampling rate : 48.0 kHz Frame rate : 46.875 FPS (1024 SPF) Compression mode : Lossy Delay relative to video : -42 ms Stream size : 43.4 MiB (3%) Title : Japanese Language : Japanese Default : No Forced : No

    Text ID : 4 Format : ASS Codec ID : S_TEXT/ASS Codec ID/Info : Advanced Sub Station Alpha Duration : 23 min 33 s Bit rate : 80 b/s Count of elements : 247 Compression mode : Lossless Stream size : 13.9 KiB (0%) Title : English Language : English Default : No Forced : No


    More at ibit.to
    And ibit.uno
    And ibit.ws

    Reviews

    Comments

    Files

    [TOPKEK] Azur Lane - S01E04 - [1080p] [x264 AAC] [Dual Audio].mkv 1.4 GB

    Stream

    Downloading Seeding [TOPKEK] Azur Lane - S01E04 - [1080p] [x264 AAC] [Dual Audio] from to 0 peers.
    of
    0 b/s / ↗0 b/s