• 8
  • 2
  • done
Anonymous Download
  • [NSBC] TWO WEEKS SP2 [WEBDL] [1080p]
  • 678 MB
  • nosoba
  • NSBC WEEKS SP2 WEBDL 1080p
  • Live Action - Raw
Warning! Use a VPN When Downloading Torrents!
Your IP Address is ,
Your Internet Provider can see when you download torrents! Hide your IP ADDRESS with a VPN
We strongly recommend Trust.Zone VPN to hide your torrenting. It's FREE!
DOWNLOAD VPN

Description

TlNCQy50bw==

Posters Thumbnails

``` General Unique ID : 252553809080759445233387209689569469155 (0xBE0018272CE7004B4964BCCFAD84A2E3) Complete name : [NSBC] TWO WEEKS SP2 [WEBDL] [1080p].mkv Format : Matroska Format version : Version 4 File size : 678 MiB Duration : 1 h 11 min Overall bit rate : 1 323 kb/s Movie name : [NSBC] TWO WEEKS SP2 [WEBDL] [1080p] Encoded by : NoNe | NSBC Encoded date : UTC 2019-09-10 09:09:08 Writing application : mkvmerge v37.0.0 ('Leave It') 64-bit Writing library : libebml v1.3.9 + libmatroska v1.5.2 Copyright : NSBC Comment : NoNe | NSBC DATE_RECORDED : 2019

Video ID : 1 Format : AVC Format/Info : Advanced Video Codec Format profile : [email protected] Format settings : CABAC / 4 Ref Frames Format settings, CABAC : Yes Format settings, Reference frames : 4 frames Codec ID : V_MPEG4/ISO/AVC Duration : 1 h 11 min Bit rate : 1 192 kb/s Width : 1 920 pixels Height : 1 080 pixels Display aspect ratio : 16:9 Frame rate mode : Constant Frame rate : 29.970 (30000/1001) FPS Color space : YUV Chroma subsampling : 4:2:0 Bit depth : 8 bits Scan type : Progressive Bits/(Pixel*Frame) : 0.019 Stream size : 611 MiB (90%) Title : [NSBC] Writing library : Zencoder Video Encoding System Default : Yes Forced : No Color range : Limited Color primaries : BT.709 Transfer characteristics : BT.709 Matrix coefficients : BT.709

Audio ID : 2 Format : AAC LC Format/Info : Advanced Audio Codec Low Complexity Codec ID : A_AAC-2 Duration : 1 h 11 min Bit rate : 128 kb/s Channel(s) : 2 channels Channel layout : L R Sampling rate : 48.0 kHz Frame rate : 46.875 FPS (1024 SPF) Compression mode : Lossy Delay relative to video : -67 ms Stream size : 65.6 MiB (10%) Title : [NSBC] Language : Japanese Default : Yes Forced : No ```


More at ibit.to
And ibit.uno
And ibit.ws

Comments

Files

[NSBC] TWO WEEKS SP2 [WEBDL] [1080p].mkv 678 MB

Stream

Downloading Seeding [NSBC] TWO WEEKS SP2 [WEBDL] [1080p] from to 0 peers.
of
0 b/s / ↗0 b/s