• -
  • 8
  • done
  • [NSBC] Jinkusu!!! / Jinx!!! / ジンクス!!! 2013 [WEBDL] [1080p] [V2]
  • 4.9 GB
  • nosoba
  • NSBC Jinkusu Jinx 2013 WEBDL 1080p
  • Live Action - Raw

Description

TlNCQy50bw==

``` General Unique ID : 302755395542219082401402933748257727739 (0xE3C49176352AF701BE6866F122CF24FB) Complete name : Jinx!!!.2013.1080p.WEB-DL.DDP2.0.H264-NSBC.mkv Format : Matroska Format version : Version 4 File size : 4.92 GiB Duration : 2 h 2 min Overall bit rate : 5 740 kb/s Movie name : Jinx!!!.2013.1080p.WEB-DL.DDP2.0.H264-NSBC Encoded by : NoNe | NSBC Encoded date : UTC 2020-02-14 10:28:27 Writing application : mkvmerge v29.0.0 ('Like It Or Not') 64-bit Writing library : libebml v1.3.6 + libmatroska v1.4.9 Copyright : NSBC Comment : NoNe | NSBC WEBSITE : NSBC.to

Video ID : 1 Format : AVC Format/Info : Advanced Video Codec Format profile : [email protected] Format settings : CABAC / 3 Ref Frames Format settings, CABAC : Yes Format settings, Reference frames : 3 frames Format settings, GOP : M=1, N=30 Codec ID : V_MPEG4/ISO/AVC Duration : 2 h 2 min Bit rate : 4 969 kb/s Width : 1 920 pixels Height : 1 080 pixels Display aspect ratio : 16:9 Frame rate mode : Constant Frame rate : 29.970 (30000/1001) FPS Color space : YUV Chroma subsampling : 4:2:0 Bit depth : 8 bits Scan type : Progressive Bits/(Pixel*Frame) : 0.080 Stream size : 4.26 GiB (87%) Title : [NSBC] Default : Yes Forced : No Color range : Limited Matrix coefficients : BT.709

Audio #1 ID : 2 Format : E-AC-3 Format/Info : Enhanced AC-3 Commercial name : Dolby Digital Plus Codec ID : A_EAC3 Duration : 2 h 2 min Bit rate mode : Constant Bit rate : 640 kb/s Channel(s) : 2 channels Channel layout : L R Sampling rate : 48.0 kHz Frame rate : 31.250 FPS (1536 SPF) Compression mode : Lossy Stream size : 562 MiB (11%) Title : [NSBC] Language : Japanese Service kind : Complete Main Default : Yes Forced : No

Audio #2 ID : 3 Format : AAC LC Format/Info : Advanced Audio Codec Low Complexity Codec ID : A_AAC-2 Duration : 2 h 2 min Bit rate : 128 kb/s Channel(s) : 2 channels Channel layout : L R Sampling rate : 48.0 kHz Frame rate : 46.875 FPS (1024 SPF) Compression mode : Lossy Stream size : 112 MiB (2%) Title : [NSBC] Language : Japanese Default : No Forced : No

```


More at ibit.to
And ibit.uno
And ibit.am
And ibit.ws

Comments

Files

Jinx!!!.2013.1080p.WEB-DL.DDP2.0.H264-NSBC.mkv 4.9 GB

Stream

Downloading Seeding [NSBC] Jinkusu!!! / Jinx!!! / ジンクス!!! 2013 [WEBDL] [1080p] [V2] from to 0 peers.
of
0 b/s / ↗0 b/s