• -
  • 2
  • done
Anonymous Download
  • [NSBC] Douki no Sakura E01 [HDTV] [720p]
  • 1.5 GB
  • nosoba
  • NSBC Douki Sakura E01 HDTV 720p
  • Live Action - Raw
Warning! Use a VPN When Downloading Torrents!
Your IP Address is ,
Your Internet Provider can see when you download torrents! Hide your IP ADDRESS with a VPN
We strongly recommend Trust.Zone VPN to hide your torrenting. It's FREE!
DOWNLOAD VPN

Description

TlNCQy50bw==

``` General Unique ID : 325615674731130510735108536441637957983 (0xF4F74C3EC2C3F368F0359CF965DFF15F) Complete name : [NSBC] Douki no Sakura E01 [HDTV] [720p].mkv Format : Matroska Format version : Version 4 File size : 1.46 GiB Duration : 51 min 10 s Overall bit rate : 4 091 kb/s Movie name : [NSBC] Douki no Sakura E01 [HDTV] [720p] Encoded by : NoNe | NSBC Encoded date : UTC 2019-10-09 21:40:12 Writing application : mkvmerge v37.0.0 ('Leave It') 64-bit Writing library : libebml v1.3.9 + libmatroska v1.5.2 Copyright : NSBC Comment : NoNe | NSBC DATE_RECORDED : 2019

Video ID : 1 Format : AVC Format/Info : Advanced Video Codec Format profile : [email protected] Format settings : 4 Ref Frames Format settings, CABAC : No Format settings, Reference frames : 4 frames Codec ID : VMPEG4/ISO/AVC Duration : 51 min 9 s Bit rate : 4 000 kb/s Width : 1 280 pixels Height : 720 pixels Display aspect ratio : 16:9 Frame rate mode : Constant Frame rate : 30.000 FPS Original frame rate : 30.303 FPS Color space : YUV Chroma subsampling : 4:2:0 Bit depth : 8 bits Scan type : Progressive Bits/(Pixel*Frame) : 0.145 Stream size : 1.42 GiB (97%) Title : [NSBC] Writing library : x264 core 146 r2538 121396c Encoding settings : cabac=0 / ref=3 / deblock=0:-1:-1 / analyse=0x3:0x113 / me=hex / subme=7 / psy=1 / psyrd=1.00:0.15 / mixedref=1 / merange=16 / chromame=1 / trellis=1 / 8x8dct=1 / cqm=0 / deadzone=21,11 / fastpskip=1 / chromaqpoffset=-3 / threads=3 / lookaheadthreads=1 / slicedthreads=0 / nr=0 / decimate=1 / interlaced=0 / bluraycompat=0 / constrainedintra=0 / bframes=3 / bpyramid=2 / badapt=1 / bbias=0 / direct=1 / weightb=0 / opengop=0 / weightp=0 / keyint=250 / keyintmin=25 / scenecut=40 / intrarefresh=0 / rclookahead=40 / rc=2pass / mbtree=1 / bitrate=4000 / ratetol=1.0 / qcomp=0.60 / qpmin=0 / qpmax=69 / qpstep=4 / cplxblur=20.0 / qblur=0.5 / ipratio=1.40 / aq=1:1.00 Default : Yes Forced : No

Audio ID : 2 Format : AAC LC Format/Info : Advanced Audio Codec Low Complexity Codec ID : A_AAC-2 Duration : 51 min 10 s Bit rate : 128 kb/s Channel(s) : 1 channel Channel layout : C Sampling rate : 48.0 kHz Frame rate : 46.875 FPS (1024 SPF) Compression mode : Lossy Delay relative to video : -232 ms Stream size : 47.0 MiB (3%) Title : [NSBC] Language : Japanese Default : Yes Forced : No ```


More at ibit.to
And ibit.uno
And ibit.ws

Comments

Files

[NSBC] Douki no Sakura E01 [HDTV] [720p].mkv 1.5 GB

Stream

Downloading Seeding [NSBC] Douki no Sakura E01 [HDTV] [720p] from to 0 peers.
of
0 b/s / ↗0 b/s