• 1
  • 6
  • done
  • [NSBC] Chocolate Wars E06 [WEBDL] [1080p]
  • 880 MB
  • nosoba
  • NSBC Chocolate Wars E06 WEBDL 1080p
  • Live Action - Raw

Description

TlNCQy50bw==

``` General Unique ID : 122131984461349752008757440452243803976 (0x5BE1C3BD191025467BC950B57CA0CF48) Complete name : Chocolate.Wars.S01E06.1080p.WEB-DL.AAC.H.264-NSBC.mkv Format : Matroska Format version : Version 4 File size : 880 MiB Duration : 24 min 0 s Overall bit rate : 5 123 kb/s Movie name : Chocolate.Wars.S01E06.1080p.WEB-DL.AAC.H.264-NSBC Encoded by : NoNe | NSBC Encoded date : UTC 2020-02-15 04:45:34 Writing application : mkvmerge v29.0.0 ('Like It Or Not') 64-bit Writing library : libebml v1.3.6 + libmatroska v1.4.9 Copyright : NSBC Comment : NoNe | NSBC DATE_RECORDED : 2020 NOTICE ME : SENPAI WEBSITE : NSBC.to

Video ID : 1 Format : AVC Format/Info : Advanced Video Codec Format profile : [email protected] Format settings : CABAC / 3 Ref Frames Format settings, CABAC : Yes Format settings, Reference frames : 3 frames Format settings, GOP : M=1, N=30 Codec ID : V_MPEG4/ISO/AVC Duration : 24 min 0 s Bit rate : 4 993 kb/s Width : 1 920 pixels Height : 1 080 pixels Display aspect ratio : 16:9 Frame rate mode : Constant Frame rate : 29.970 (30000/1001) FPS Color space : YUV Chroma subsampling : 4:2:0 Bit depth : 8 bits Scan type : Progressive Bits/(Pixel*Frame) : 0.080 Stream size : 857 MiB (97%) Title : [NSBC] Default : Yes Forced : No

Audio ID : 2 Format : AAC LC Format/Info : Advanced Audio Codec Low Complexity Codec ID : A_AAC-2 Duration : 24 min 0 s Bit rate : 128 kb/s Channel(s) : 2 channels Channel layout : L R Sampling rate : 44.1 kHz Frame rate : 43.066 FPS (1024 SPF) Compression mode : Lossy Stream size : 21.9 MiB (2%) Title : [NSBC] Language : Japanese Default : Yes Forced : No

```


More at ibit.to
And ibit.uno
And ibit.am
And ibit.ws

Comments

Files

Chocolate.Wars.S01E06.1080p.WEB-DL.AAC.H.264-NSBC.mkv 880 MB

Stream

Downloading Seeding [NSBC] Chocolate Wars E06 [WEBDL] [1080p] from to 0 peers.
of
0 b/s / ↗0 b/s