• 14
  • 46
  • done
Download
  • [NSBC] 13 E01 [HDTV] [1080i]
  • 2.9 GB
  • nosoba
  • NSBC E01 HDTV 1080i
  • Live Action - Raw

Description

TlNCQy50bwo=

In case there is no seeder, visit here

``` General Unique ID : 55526631542270097955935095619417022293 (0x29C60A4D282D3F57AFF8D3A07D0C1F55) Complete name : 13 S01E01 1080i HDTV DD2.0 MPEG2-NSBC.mkv Format : Matroska Format version : Version 4 File size : 2.88 GiB Duration : 43 min 49 s Overall bit rate mode : Variable Overall bit rate : 9 396 kb/s Movie name : 13 S01E01 1080i HDTV DD2.0 MPEG2-NSBC Encoded by : MoMo | NSBC Encoded date : UTC 2020-08-01 21:59:27 Writing application : mkvmerge v29.0.0 ('Like It Or Not') 64-bit Writing library : libebml v1.3.6 + libmatroska v1.4.9 Copyright : NSBC Comment : MoMo | NSBC DATE_RECORDED : 2020 WEBSITE : NSBC.to

Video ID : 1 Format : MPEG Video Format version : Version 2 Format profile : [email protected] Format settings : CustomMatrix / BVOP Format settings, BVOP : Yes Format settings, Matrix : Custom Format settings, GOP : M=3, N=15 Format settings, picture structure : Frame Codec ID : V_MPEG2 Codec ID/Info : MPEG 1 or 2 Video Duration : 43 min 49 s Bit rate mode : Variable Bit rate : 9 201 kb/s Maximum bit rate : 24.0 Mb/s Width : 1 440 pixels Height : 1 080 pixels Display aspect ratio : 16:9 Frame rate mode : Constant Frame rate : 29.970 (30000/1001) FPS Standard : Component Color space : YUV Chroma subsampling : 4:2:0 Bit depth : 8 bits Scan type : Interlaced Scan order : Top Field First Compression mode : Lossy Bits/(Pixel*Frame) : 0.197 Time code of first frame : 18:35:58;24 Time code source : Group of pictures header GOP, Open/Closed : Open GOP, Open/Closed of first frame : Closed Stream size : 2.82 GiB (98%) Title : [NSBC] Default : Yes Forced : No Color primaries : BT.709 Transfer characteristics : BT.709 Matrix coefficients : BT.709

Audio ID : 2 Format : AC-3 Format/Info : Audio Coding 3 Commercial name : Dolby Digital Codec ID : A_AC3 Duration : 43 min 49 s Bit rate mode : Constant Bit rate : 192 kb/s Channel(s) : 2 channels Channel layout : L R Sampling rate : 48.0 kHz Frame rate : 31.250 FPS (1536 SPF) Compression mode : Lossy Delay relative to video : 7 ms Stream size : 60.2 MiB (2%) Title : [NSBC] Language : Japanese Service kind : Complete Main Default : Yes Forced : No

```


More at ibit.to
And ibit.uno
And ibit.am
And ibit.ws

Comments

Files

13 S01E01 1080i HDTV DD2.0 MPEG2-NSBC.mkv 2.9 GB

Stream

Downloading Seeding [NSBC] 13 E01 [HDTV] [1080i] from to 0 peers.
of
0 b/s / ↗0 b/s