• 0
  • 0
  • done
Sponsored Download
  • (Latin, Alternative, Ska, Rock) 2019 Panteón Rococó - Infiernos
  • 313 MB
  • alexcheca
  • Latin Alternative Ska Rock 2019 Pante Rococ Infiernos
  • Зарубежные Alternative, Punk,

Description

Panteon Rococó / Infiernos

image

Жанр : Latin, Alternative, Ska, Rock

Носитель : CD

Страна-производитель диска (релиза) : México

Год издания : 2019

Издатель (лейбл) : ℗ 2019 El Cocrodilo Solitario S. de R.L. de C.V.

Номер по каталогу : 190759633823

Страна исполнителя (группы) : México

Аудиокодек : FLAC (*.flac)

Тип рипа : image+.cue

Продолжительность : 00:42:59

Источник : собственная покупка

Наличие сканов в содержимом раздачи : нет
image

Треклист :
1. Miradas
2. Infiernos

  1. Botellas
  2. El Último Ska (feat. Dub Inc.)
  3. Questo Que'lotro
  4. Manifestacíon
  5. Soy Peligroso
  6. Bum (feat. Los Auténticos Decadentes)
  7. Alma Cromática (feat. Jonaz)
  8. Tus Demonios (feat. Andrés Ciro Martínez)
  9. Deja Vu (Tonantzin)

Лог создания рипа

`Exact Audio Copy V1.3 from 2. September 2016

EAC extraction logfile from 9. June 2019, 18:24

Panteón Rococó / Infiernos

Used drive : HL-DT-STDVDRAM GSA-T20L Adapter: 1 ID: 0

Read mode : Secure
Utilize accurate stream : Yes
Defeat audio cache : Yes
Make use of C2 pointers : No

Read offset correction : 667
Overread into Lead-In and Lead-Out : No
Fill up missing offset samples with silence : Yes
Delete leading and trailing silent blocks : No
Null samples used in CRC calculations : Yes
Used interface : Native Win32 interface for Win NT & 2000

Used output format : User Defined Encoder
Selected bitrate : 768 kBit/s
Quality : High
Add ID3 tag : No
Command line compressor : C:Program Files (x86)Exact Audio CopyFLACFLAC.EXE
Additional command line options : -6 -V -T "ARTIST=%artist%" -T "TITLE=%src%" -T "ALBUM=%albumsrc%" -T "DATE=%year%" -T "TRACKNUMBER=%tracknr%" -T "GENRE=%genre%" -T "COMMENT=%comment%" -T "BAND=%albuminterpret%" -T "ALBUMARTIST=%albuminterpret%" -T "COMPOSER=%composer%" %haslyrics%--tag-from-file=LYRICS="%lyricsfile%"%haslyrics% -T "DISCNUMBER=%cdnumber%" -T "TOTALDISCS=%totalcds%" -T "TOTALTRACKS=%numtracks%" %hascover%--picture="%coverfile%"%hascover% %source% -o %dest%

TOC of the extracted CD

Track | Start | Length | Start sector | End sector


1 | 0:00.00 | 3:01.58 | 0 | 13632
2 | 3:01.58 | 4:52.53 | 13633 | 35585
3 | 7:54.36 | 4:08.45 | 35586 | 54230
4 | 12:03.06 | 4:35.54 | 54231 | 74909
5 | 16:38.60 | 2:37.25 | 74910 | 86709
6 | 19:16.10 | 2:34.03 | 86710 | 98262
7 | 21:50.13 | 3:40.41 | 98263 | 114803
8 | 25:30.54 | 3:16.73 | 114804 | 129576
9 | 28:47.52 | 4:19.16 | 129577 | 149017
10 | 33:06.68 | 4:19.15 | 149018 | 168457
11 | 37:26.08 | 5:33.31 | 168458 | 193463

Range status and errors

Selected range

Filename C:UsersalexcDesktopPanteón Rococó - Infiernos.wav

Peak level 100.0 %
Extraction speed 3.8 X
Range quality 100.0 %
Test CRC 72110C0E
Copy CRC 72110C0E
Copy OK

No errors occurred

AccurateRip summary

Track 1 not present in database
Track 2 not present in database
Track 3 not present in database
Track 4 not present in database
Track 5 not present in database
Track 6 not present in database
Track 7 not present in database
Track 8 not present in database
Track 9 not present in database
Track 10 not present in database
Track 11 not present in database

None of the tracks are present in the AccurateRip database

End of status report

---- CUETools DB Plugin V2.1.6

[CTDB TOCID: wk.e4T.SgFyGW0XlmhiEdGbhZ4w-] database access error: No se puede resolver el nombre remoto: 'db.cuetools.net' `

Содержание индексной карты (.CUE)

REM GENRE Ska REM DATE 2019 REM DISCID 8C0A130B REM COMMENT ExactAudioCopy v1.3 CATALOG 190759633823 PERFORMER "Panteón Rococó" TITLE "Infiernos" REM REPLAYGAIN_ALBUM_GAIN -9.80 dB REM REPLAYGAIN_ALBUM_PEAK 1.000000 FILE "Panteón Rococó - Infiernos.flac" WAVE TRACK 01 AUDIO TITLE "Miradas" ISRC MX2341300076 REM REPLAYGAIN_TRACK_GAIN -8.85 dB REM REPLAYGAIN_TRACK_PEAK 1.000000 INDEX 01 00:00:00 TRACK 02 AUDIO TITLE "Infiernos" ISRC MX2341300077 REM REPLAYGAIN_TRACK_GAIN -9.44 dB REM REPLAYGAIN_TRACK_PEAK 1.000000 INDEX 00 03:00:58 INDEX 01 03:01:58 TRACK 03 AUDIO TITLE "Botellas" ISRC MX2341300078 REM REPLAYGAIN_TRACK_GAIN -8.82 dB REM REPLAYGAIN_TRACK_PEAK 1.000000 INDEX 00 07:53:36 INDEX 01 07:54:36 TRACK 04 AUDIO TITLE "El Último Ska (feat. Dub Inc)" ISRC MX2341300079 REM REPLAYGAIN_TRACK_GAIN -10.10 dB REM REPLAYGAIN_TRACK_PEAK 1.000000 INDEX 00 12:02:06 INDEX 01 12:03:06 TRACK 05 AUDIO TITLE "Questo Que'lotro" ISRC MX2341300080 REM REPLAYGAIN_TRACK_GAIN -10.71 dB REM REPLAYGAIN_TRACK_PEAK 1.000000 INDEX 00 16:37:60 INDEX 01 16:38:60 TRACK 06 AUDIO TITLE "Manifestacíon" ISRC MX2341300081 REM REPLAYGAIN_TRACK_GAIN -9.22 dB REM REPLAYGAIN_TRACK_PEAK 1.000000 INDEX 00 19:15:10 INDEX 01 19:16:10 TRACK 07 AUDIO TITLE "Soy Peligroso" ISRC MX2341300082 REM REPLAYGAIN_TRACK_GAIN -10.57 dB REM REPLAYGAIN_TRACK_PEAK 1.000000 INDEX 00 21:49:13 INDEX 01 21:50:13 TRACK 08 AUDIO TITLE "Bum (feat. Los Auténticos Decadentes)" ISRC MX2341300083 REM REPLAYGAIN_TRACK_GAIN -10.81 dB REM REPLAYGAIN_TRACK_PEAK 1.000000 INDEX 00 25:29:54 INDEX 01 25:30:54 TRACK 09 AUDIO TITLE "Alma Cromática (feat. Jonaz)" ISRC MX2341300084 REM REPLAYGAIN_TRACK_GAIN -9.54 dB REM REPLAYGAIN_TRACK_PEAK 1.000000 INDEX 00 28:46:52 INDEX 01 28:47:52 TRACK 10 AUDIO TITLE "Tus Demonios (feat. Andrés Ciro Martínez)" ISRC MX2341300085 REM REPLAYGAIN_TRACK_GAIN -10.52 dB REM REPLAYGAIN_TRACK_PEAK 1.000000 INDEX 00 33:05:68 INDEX 01 33:06:68 TRACK 11 AUDIO TITLE "Deja Vu (Tonantzin)" ISRC MX2341300086 REM REPLAYGAIN_TRACK_GAIN -8.93 dB REM REPLAYGAIN_TRACK_PEAK 1.000000 INDEX 00 37:25:08 INDEX 01 37:26:08

Лог проверки качества

`-----------------------

DON'T MODIFY THIS FILE


PERFORMER: auCDtect Task Manager, ver. 1.6.0 RC1 build 1.6.0.1
Copyright (c) 2008-2010 y-soft. All rights reserved
http://y-soft.org

ANALYZER: auCDtect: CD records authenticity detector, version 0.8.2
Copyright (c) 2004 Oleg Berngardt. All rights reserved.
Copyright (c) 2004 Alexander Djourik. All rights reserved.

FILE: Panteón Rococó - Infiernos.flac
Size: 312690441 Hash: 56644EE1901F966A7A9BE62E2FEA04E1 Accuracy: -m0
Conclusion: CDDA 100%
Signature: 507A36EBFC068EA0B7B28BC567C33DD6210C686A `

Скриншот спектра частот

image


More at ibit.to
And ibit.uno
And ibit.ws

Comments

Files

(Latin, Alternative, Ska, Rock) 2019 Panteón Rococó - InfiernosFolder.auCDtect.txt 1.2 kB
(Latin, Alternative, Ska, Rock) 2019 Panteón Rococó - InfiernosPanteón Rococó - Infiernos.cue 2.5 kB
(Latin, Alternative, Ska, Rock) 2019 Panteón Rococó - InfiernosPanteón Rococó - Infiernos.log 6.4 kB
(Latin, Alternative, Ska, Rock) 2019 Panteón Rococó - InfiernosPanteón Rococó - Infiernos.flac 313 MB

Stream

Downloading Seeding (Latin, Alternative, Ska, Rock) 2019 Panteón Rococó - Infiernos from to 0 peers.
of
0 b/s / ↗0 b/s