Warning! Use a VPN When Downloading Torrents!
Your IP Address is . Location
Your Internet Provider can see when you download torrents! Hide your IP Address with a VPN
ibit warns: You must use Trust.Zone VPN to hide your torrenting. It's FREE HIDE ME NOW

  • 0
  • 0
  • done
  • (Folk Rock, Prog Rock ) Formația Phoenix - Formația Phoenix (Electrecord), FLAC (image+.cue), lossless
  • -
  • musicgate
  • Folk Rock Prog Forma Phoenix Electrecord FLAC image cue lossless
  • Зарубежный Rock

Description

image

Диск alonzo (навсегда в нашей памяти)

image


Formația Phoenix - Formația Phoenix


image image

Жанр : Folk Rock, Prog Rock

Носитель : CD

Страна-производитель диска : Romania

Год оригинального издания : Unknown

Издатель (лейбл) : Electrecord

Номер по каталогу : None

Страна : Romania

Аудиокодек : FLAC (*.flac)

Тип рипа : image+.cue

Битрейт аудио : lossless

Продолжительность :45:48

Источник (релизер) : Диск из коллекции alonzo , рип Musicgate

Наличие сканов в содержимом раздачи : да

Треклист :
Ciclul Anotimpurilor:
1.a. Preludiu („A Oilor”)
1.b. Jocul Timpului
1.c. Primăvara (Introducere - Paparudele)
1.d. Vara
1.e. Toamna
1.f. Iarna
1.g. Jocul Caprelor
-
2. Nunta
3. Negru Vodă, Baladă
4. Pseudo Morgana

image

eac

`Exact Audio Copy V1.3 from 2. September 2016

EAC extraction logfile from 13. December 2019, 21:50

Formația Phoenix / Formația Phoenix

Used drive : HL-DT-STDVDRAM GH24NSD1 Adapter: 1 ID: 0

Read mode : Secure
Utilize accurate stream : Yes
Defeat audio cache : Yes
Make use of C2 pointers : No

Read offset correction : 6
Overread into Lead-In and Lead-Out : No
Fill up missing offset samples with silence : Yes
Delete leading and trailing silent blocks : No
Null samples used in CRC calculations : Yes
Used interface : Native Win32 interface for Win NT & 2000

Used output format : User Defined Encoder
Selected bitrate : 1024 kBit/s
Quality : High
Add ID3 tag : No
Command line compressor : C:Program Files (x86)Exact Audio CopyFLACFLAC.EXE
Additional command line options : -V -8 -T "Genre=%genre%" -T "Artist=%artist%" -T "Title=%src%" -T "Album=%albumsrc%" -T "Date=%year%" -T "Tracknumber=%tracknr%" -T "Comment=%comment%" %source%

TOC of the extracted CD

Track | Start | Length | Start sector | End sector


1 | 0:00.00 | 4:25.11 | 0 | 19885
2 | 4:25.11 | 1:02.65 | 19886 | 24600
3 | 5:28.01 | 0:19.57 | 24601 | 26082
4 | 5:47.58 | 2:15.39 | 26083 | 36246
5 | 8:03.22 | 4:21.44 | 36247 | 55865
6 | 12:24.66 | 4:31.01 | 55866 | 76191
7 | 16:55.67 | 2:47.06 | 76192 | 88722
8 | 19:42.73 | 4:20.48 | 88723 | 108270
9 | 24:03.46 | 14:54.69 | 108271 | 175389
10 | 38:58.40 | 6:50.12 | 175390 | 206151

Range status and errors

Selected range

Filename D:MusicMG ripsFormația Phoenix - Formația Phoenix (Electricord) [FLAC]Formația Phoenix - Formația Phoenix.wav

Peak level 100.0 %
Extraction speed 1.8 X
Range quality 100.0 %
Test CRC 653C5B05
Copy CRC 653C5B05
Copy OK

No errors occurred

AccurateRip summary

Track 1 not present in database
Track 2 not present in database
Track 3 not present in database
Track 4 not present in database
Track 5 not present in database
Track 6 not present in database
Track 7 not present in database
Track 8 not present in database
Track 9 not present in database
Track 10 not present in database

None of the tracks are present in the AccurateRip database

End of status report

==== Log checksum 73550E498869347B8848F61B958C3968235680A7CA1240E8C1C75AA8AB0A03EA ==== `

.cue

REM GENRE Rock REM DISCID 770ABC0A REM COMMENT "ExactAudioCopy v1.3" PERFORMER "Formația Phoenix" TITLE "Formația Phoenix" REM COMPOSER "" FILE "Formația Phoenix - Formația Phoenix.flac" WAVE TRACK 01 AUDIO TITLE "Preludiu („A Oilor”)" PERFORMER "Formația Phoenix" REM COMPOSER "" INDEX 01 00:00:00 TRACK 02 AUDIO TITLE "Jocul Timpului" PERFORMER "Formația Phoenix" REM COMPOSER "" INDEX 01 04:25:11 TRACK 03 AUDIO TITLE "Primavara (Introducere - Paparudele)" PERFORMER "Formația Phoenix" REM COMPOSER "" INDEX 01 05:28:01 TRACK 04 AUDIO TITLE "Vara" PERFORMER "Formația Phoenix" REM COMPOSER "" INDEX 01 05:47:58 TRACK 05 AUDIO TITLE "Toamna" PERFORMER "Formația Phoenix" REM COMPOSER "" INDEX 01 08:03:22 TRACK 06 AUDIO TITLE "Iarna" PERFORMER "Formația Phoenix" REM COMPOSER "" INDEX 01 12:24:66 TRACK 07 AUDIO TITLE "Jocul Caprelor" PERFORMER "Formația Phoenix" REM COMPOSER "" INDEX 01 16:55:67 TRACK 08 AUDIO TITLE "Nunta" PERFORMER "Formația Phoenix" REM COMPOSER "" INDEX 01 19:42:73 TRACK 09 AUDIO TITLE "Negru Voda, Balada" PERFORMER "Formația Phoenix" REM COMPOSER "" INDEX 01 24:03:46 TRACK 10 AUDIO TITLE "Pseudo-Morgana" PERFORMER "Formația Phoenix" REM COMPOSER "" INDEX 01 38:58:40

Matrix

image

Back

image

personel

Bass Guitar, Vocals – Iosif Kappl
Composed By, Arranged By – Nicolae Covaci
Flute, Vocals – Nicolae Covaci
Guitar, Vocals – Mircea Baniciu
Percussion – Costin Petrescu, Valeriu Sepi
Soloist, Guitar – Nicolae Covaci

Other logs

Лог проверки качества

`-----------------------

DON'T MODIFY THIS FILE


PERFORMER: auCDtect Task Manager, ver. 1.6.0 RC1 build 1.6.0.1
Copyright (c) 2008-2010 y-soft. All rights reserved
http://y-soft.org

ANALYZER: auCDtect: CD records authenticity detector, version 0.8.2
Copyright (c) 2004 Oleg Berngardt. All rights reserved.
Copyright (c) 2004 Alexander Djourik. All rights reserved.

FILE: Formația Phoenix - Formația Phoenix.flac
Size: 277280073 Hash: 5965FAB5B6B5A2E27764B4AEA3B40570 Accuracy: -m0
Conclusion: CDDA 100%
Signature: 56222B6BCCB6913A0C9BA1F2259641F9E6E5D701 `

Лог CUETools

*.accurip

`[CUETools log; Date: 12/30/2019 6:14:29 AM; Version: 2.1.5]
[CTDB TOCID: rdNlPZYC52wndABFAVsFfynOvzI-] disk not present in database.
[AccurateRip ID: 000c7903-006a6826-770abc0a] disk not present in database.

Track Peak [CRC32] [W/O NULL] [LOG]
-- 100.0 [653C5B05] [B3B3B6B6] CRC32
01 87.8 [1B8C0E01] [57D2F455]
02 98.1 [49E74675] [E87404CC]
03 65.1 [84E9022A] [B05108C7]
04 96.8 [8B5DC734] [3D64893D]
05 100.0 [867AA8BE] [BC0CD721]
06 71.0 [52B5C24D] [57FEEBF1]
07 78.3 [598B3CBC] [F7E87419]
08 79.2 [A513EEA5] [F6269BEF]
09 95.2 [A46BAED2] [B05D2980]
10 83.8 [F42B8D0A] [A9687946] `

*.toc

`Track | Start | Length | Start sector | End sector


1 | 0:00.00 | 4:25.11 | 0 | 19885
2 | 4:25.11 | 1:02.65 | 19886 | 24600
3 | 5:28.01 | 0:19.57 | 24601 | 26082
4 | 5:47.58 | 2:15.39 | 26083 | 36246
5 | 8:03.22 | 4:21.44 | 36247 | 55865
6 | 12:24.66 | 4:31.01 | 55866 | 76191
7 | 16:55.67 | 2:47.06 | 76192 | 88722
8 | 19:42.73 | 4:20.48 | 88723 | 108270
9 | 24:03.46 | 14:54.69 | 108271 | 175389
10 | 38:58.40 | 6:50.12 | 175390 | 206151 `

Замер динамического диапазона

`foobar2000 1.3.10 / Замер динамического диапазона (DR) 1.1.1
Дата отчёта: 2019-12-30 06:04:42


Анализ: Formația Phoenix / Formația Phoenix
DR Пики RMS Продолжительность трека

DR12 -1.12 дБ -16.37 дБ 4:25 01-Preludiu („A Oilor”)
DR12 -0.16 дБ -14.81 дБ 1:03 02-Jocul Timpului
DR10 -3.72 дБ -18.05 дБ 0:20 03-Primavara (Introducere - Paparudele)
DR11 -0.28 дБ -14.64 дБ 2:16 04-Vara
DR12 0.00 дБ -14.36 дБ 4:22 05-Toamna
DR11 -2.97 дБ -15.99 дБ 4:31 06-Iarna
DR10 -2.11 дБ -16.21 дБ 2:47 07-Jocul Caprelor
DR11 -2.02 дБ -14.63 дБ 4:21 08-Nunta
DR11 -0.43 дБ -14.86 дБ 14:55 09-Negru Voda, Balada

DR12 -1.53 дБ -15.04 дБ 6:50 10-Pseudo-Morgana

Количество треков: 10
Реальные значения DR: DR11

Частота: 44100 Гц
Каналов: 2
Разрядность: 16
Битрейт: 807 кбит/с
Кодек: FLAC
================================================================================ `


More at ibit.to
And ibit.uno
And ibit.am
And ibit.ws

Comments

Files

Stream

Downloading Seeding (Folk Rock, Prog Rock ) Formația Phoenix - Formația Phoenix (Electrecord), FLAC (image+.cue), lossless from to 0 peers.
of
0 b/s / ↗0 b/s