Warning! Use a VPN When Downloading Torrents!
Your IP Address is . Location
Your Internet Provider can see when you download torrents! Hide your IP Address with a VPN
ibit warns: You must use Trust.Zone VPN to hide your torrenting. It's FREE HIDE ME NOW

  • 1
  • -
  • done
  • (Electronic) [CD] ATB - The Best Of - 2003, FLAC (tracks), lossless
  • 820 MB
  • vitalikkontr
  • Electronic ATB Best 2003 FLAC tracks lossless
  • Trance (lossless)

Description

ATB / The Best Of

image

Жанр : Electronic

Носитель : CD https://www.discogs.com/ru/ATB-The-Best-Of/release/4114052

Страна-производитель диска (релиза) : Ukraine

Год издания : 2003

Издатель (лейбл) : Одиссей

Номер по каталогу : 24100306

Страна исполнителя (группы) : Germany

Аудиокодек : FLAC (*.flac)

Тип рипа : tracks

Продолжительность : 79:23

Источник : собственная покупка

Наличие сканов в содержимом раздачи : да

Треклист :

  1. Dedicated (4:17)
    1. Hold You (3:33)
    2. The Summer (3:42)
    3. The Fields Of Love (3:46)
    4. I Don't Wanna Stop (3:36)
    5. Love Will Find You (5:53)
    6. Let U Go (3:33)
    7. See U Again (6:37)
    8. Long Way Home (5:20)
    9. You're Not Alone (5:59)
    10. Emotion (4:26)
    11. My Dreams (7:08)
    12. Movin Melodies (5:59)
    13. Zwichenstuck (1:00)
    14. 9 P.M. (3:16)
    15. Enigmatic Encounter (4:41)
    16. The First Tones (2:09)
    17. Kayama (4:26)

Лог создания рипа

`
EZ CD Audio Converter 9.1.3 [64-bit]

Log creation date: Jun 22 2020 18:05

Device: [F:] ASUS DRW-24D5MT 2.00

Profile : Normal
Read mode : Normal
C2 pointers : Disabled
AccurateCDDA : Enabled
Verify audio : Disabled
Drive spin-up : Disabled
Sample offset : 0

Detect pre-gaps: : Disabled
Detect pre-emphasis (subcode) : Disabled
Detect pre-emphasis (TOC) : Enabled
Read UPC/EAN : Disabled
Read ISRCs : Disabled

Calculate ReplayGain : Disabled
Apply ReplayGain : Disabled
Fade In : Disabled
Fade Out : Disabled
Delete leading digital silence : Disabled
Add leading silence : Disabled
Delete trailing digital silence : Disabled
Add trailing silence : Disabled

Output format : .flac | Free Lossless Audio Codec
Encoder : FLAC 1.3.3
Bit depth : Auto
Channels : Auto
Sample rate : Auto
Compression level : Uncompressed

Track Start Length Start sector End sector Pre-gap ISRC Pre-emphasis

[X] 01 00:00.00 04:17.65 0 19339 No
[X] 02 04:17.65 03:33.03 19340 35317 No
[X] 03 07:50.68 03:41.54 35318 51946 No
[X] 04 11:32.47 03:46.00 51947 68896 No
[X] 05 15:18.47 03:36.17 68897 85113 No
[X] 06 18:54.64 05:52.55 85114 111568 No
[X] 07 24:47.44 03:32.31 111569 127499 No
[X] 08 28:20.00 06:37.71 127500 157345 No
[X] 09 34:57.71 05:19.34 157346 181304 No
[X] 10 40:17.30 05:59.26 181305 208255 No
[X] 11 46:16.56 04:25.71 208256 228201 No
[X] 12 50:42.52 07:07.49 228202 260275 No
[X] 13 57:50.26 05:58.61 260276 287186 No
[X] 14 63:49.12 00:59.74 287187 291685 No
[X] 15 64:49.11 03:15.65 291686 306375 No
[X] 16 68:05.01 04:41.18 306376 327468 No
[X] 17 72:46.19 02:09.23 327469 337166 No

[X] 18 74:55.42 04:25.69 337167 357110 No
Summary

18 total tracks
18 copied successfully
0 copied with errors
0 failed

Track Status CRC Filename

1 Success A60F0660 "01. Dedicated.flac"
2 Success ACCFA0CA "02. Hold You.flac"
3 Success 3D39B6D7 "03. The Summer.flac"
4 Success 5AB9B977 "04. Fields Of Love.flac"
5 Success 7DFFE906 "05. I Don't Wanna Stop.flac"
6 Success 14FBC73C "06. Love Will Find You.flac"
7 Success 11037D15 "07. Let U Go.flac"
8 Success B420C951 "08. See U Again.flac"
9 Success 9D7E2037 "09. Long Way Home.flac"
10 Success A6E840CE "10. You're Not Alone.flac"
11 Success E5DD58ED "11. Emotion.flac"
12 Success 366D21C6 "12. My Dreams.flac"
13 Success 5BA9F644 "13. Movin Melodies.flac"
14 Success 63370C8C "14. Zwischenstck.flac"
15 Success B0D16D11 "15. 9 P.M..flac"
16 Success 704BFE7D "16. Enigmatic Encounter.flac"
17 Success 53FE4DA5 "17. The First Tones.flac"
18 Success 1DA87C9C "18. Kayama.flac"

Details

Track 1

Filename "01. Dedicated.flac"

CRC : A60F0660

Finished successfully

Track 2

Filename "02. Hold You.flac"

CRC : ACCFA0CA

Finished successfully

Track 3

Filename "03. The Summer.flac"

CRC : 3D39B6D7

Finished successfully

Track 4

Filename "04. Fields Of Love.flac"

CRC : 5AB9B977

Finished successfully

Track 5

Filename "05. I Don't Wanna Stop.flac"

CRC : 7DFFE906

Finished successfully

Track 6

Filename "06. Love Will Find You.flac"

CRC : 14FBC73C

Finished successfully

Track 7

Filename "07. Let U Go.flac"

CRC : 11037D15

Finished successfully

Track 8

Filename "08. See U Again.flac"

CRC : B420C951

Finished successfully

Track 9

Filename "09. Long Way Home.flac"

CRC : 9D7E2037

Finished successfully

Track 10

Filename "10. You're Not Alone.flac"

CRC : A6E840CE

Finished successfully

Track 11

Filename "11. Emotion.flac"

CRC : E5DD58ED

Finished successfully

Track 12

Filename "12. My Dreams.flac"

CRC : 366D21C6

Finished successfully

Track 13

Filename "13. Movin Melodies.flac"

CRC : 5BA9F644

Finished successfully

Track 14

Filename "14. Zwischenstck.flac"

CRC : 63370C8C

Finished successfully

Track 15

Filename "15. 9 P.M..flac"

CRC : B0D16D11

Finished successfully

Track 16

Filename "16. Enigmatic Encounter.flac"

CRC : 704BFE7D

Finished successfully

Track 17

Filename "17. The First Tones.flac"

CRC : 53FE4DA5

Finished successfully

Track 18

Filename "18. Kayama.flac"

CRC : 1DA87C9C

Finished successfully

`

Содержание индексной карты (.CUE)

`
PERFORMER "ATB"
TITLE "The Best of atb"
REM DATE "2003"
REM GENRE "Electronic"
REM COMMENT "EZ CD Audio Converter 9.1.3 [64-bit]"
FILE "01. Dedicated.flac" WAVE
TRACK 01 AUDIO
TITLE "Dedicated"
INDEX 01 00:00:00
FILE "02. Hold You.flac" WAVE
TRACK 02 AUDIO
TITLE "Hold You"
INDEX 01 00:00:00
FILE "03. The Summer.flac" WAVE
TRACK 03 AUDIO
TITLE "The Summer"
INDEX 01 00:00:00
FILE "04. Fields Of Love.flac" WAVE
TRACK 04 AUDIO
TITLE "Fields Of Love"
INDEX 01 00:00:00
FILE "05. I Don't Wanna Stop.flac" WAVE
TRACK 05 AUDIO
TITLE "I Don't Wanna Stop"
INDEX 01 00:00:00
FILE "06. Love Will Find You.flac" WAVE
TRACK 06 AUDIO
TITLE "Love Will Find You"
INDEX 01 00:00:00
FILE "07. Let U Go.flac" WAVE
TRACK 07 AUDIO
TITLE "Let U Go"
INDEX 01 00:00:00
FILE "08. See U Again.flac" WAVE
TRACK 08 AUDIO
TITLE "See U Again"
INDEX 01 00:00:00
FILE "09. Long Way Home.flac" WAVE
TRACK 09 AUDIO
TITLE "Long Way Home"
INDEX 01 00:00:00
FILE "10. You're Not Alone.flac" WAVE
TRACK 10 AUDIO
TITLE "You're Not Alone"
INDEX 01 00:00:00
FILE "11. Emotion.flac" WAVE
TRACK 11 AUDIO
TITLE "Emotion"
INDEX 01 00:00:00
FILE "12. My Dreams.flac" WAVE
TRACK 12 AUDIO
TITLE "My Dreams"
INDEX 01 00:00:00
FILE "13. Movin Melodies.flac" WAVE
TRACK 13 AUDIO
TITLE "Movin Melodies"
INDEX 01 00:00:00
FILE "14. Zwischenstck.flac" WAVE
TRACK 14 AUDIO
TITLE "Zwischenstck"
INDEX 01 00:00:00
FILE "15. 9 P.M..flac" WAVE
TRACK 15 AUDIO
TITLE "9 P.M."
INDEX 01 00:00:00
FILE "16. Enigmatic Encounter.flac" WAVE
TRACK 16 AUDIO
TITLE "Enigmatic Encounter"
INDEX 01 00:00:00
FILE "17. The First Tones.flac" WAVE
TRACK 17 AUDIO
TITLE "The First Tones"
INDEX 01 00:00:00
FILE "18. Kayama.flac" WAVE
TRACK 18 AUDIO
TITLE "Kayama"
INDEX 01 00:00:00

`

Скриншот спектра частот

image image

Об исполнителе (группе)

Андре Таннебергер — немецкий музыкант и музыкальный продюсер, диджей, автор песен. Получил мировую известность после выхода синглов «9 PM », «Don’t Stop!», «Killer», записанных им под псевдонимом ATB.

Скриншот:

imageimageimageimageimageimage


More at ibit.to
And ibit.uno
And ibit.am
And ibit.ws

Comments

1 week ago

еще залил [CD] ATB - The DJ In The Mix 3 - 2006, FLAC (tracks)

Files

Stream

Downloading Seeding (Electronic) [CD] ATB - The Best Of - 2003, FLAC (tracks), lossless from to 0 peers.
of
0 b/s / ↗0 b/s