Warning! Use a VPN When Downloading Torrents!
Your IP Address is . Location
Your Internet Provider can see when you download torrents! Hide your IP Address with a VPN
ibit warns: You must use Trust.Zone VPN to hide your torrenting. It's FREE HIDE ME NOW

  • -
  • -
  • done
  • (Electronic) [CD] ATB - The Best Of - 2003, FLAC (tracks), lossless
  • 548 MB
  • vitalikkontr
  • Electronic ATB Best 2003 FLAC tracks lossless
  • Trance (lossless)

Description

ATB / The Best Of

image

Жанр : Electronic

Носитель : CD https://www.discogs.com/ru/ATB-The-Best-Of/release/4114052

Страна-производитель диска (релиза) : Ukraine

Год издания : 2003

Издатель (лейбл) : Одиссей

Номер по каталогу : 24100306

Страна исполнителя (группы) : Germany

Аудиокодек : FLAC (*.flac)

Тип рипа : tracks

Продолжительность : 79:23

Источник : собственная покупка

Наличие сканов в содержимом раздачи : да

Треклист :

  1. Dedicated (4:17)
    1. Hold You (3:33)
    2. The Summer (3:42)
    3. The Fields Of Love (3:46)
    4. I Don't Wanna Stop (3:36)
    5. Love Will Find You (5:53)
    6. Let U Go (3:33)
    7. See U Again (6:37)
    8. Long Way Home (5:20)
    9. You're Not Alone (5:59)
    10. Emotion (4:26)
    11. My Dreams (7:08)
    12. Movin Melodies (5:59)
    13. Zwichenstuck (1:00)
    14. 9 P.M. (3:16)
    15. Enigmatic Encounter (4:41)
    16. The First Tones (2:09)
    17. Kayama (4:26)

Лог создания рипа

`
Exact Audio Copy V1.5 from 20. February 2020

Отчёт EAC об извлечении, выполненном 24. июня 2020, 7:46

ATB / The Best Of

Дисковод: ASUS DRW-24D5MT Adapter: 1 ID: 0

Режим чтения : Достоверность
Использование точного потока : Да
Отключение кэша аудио : Да
Использование указателей C2 : Нет

Коррекция смещения при чтении : 6
Способность читать области Lead-in и Lead-out : Нет
Заполнение пропущенных сэмплов тишиной : Да
Удаление блоков с тишиной в начале и конце : Нет
При вычислениях CRC использовались нулевые сэмплы : Да
Интерфейс : Встроенный Win32-интерфейс для Win NT/2000
Обработка зазоров : Добавлено к предыдущему треку

Выходной формат : Пользовательский кодировщик
Выбранный битрейт : 1024 kBit/s
Качество : Высокий
Добавление ID3-тега : Нет
Утилита сжатия : C:Program Files (x86)Exact Audio CopyFlacflac.exe
Дополнительные параметры : -V -8 -T "Date=%year%" -T "Genre=%genre%" %source%

TOC извлечённого CD

Трек | Старт | Длительность | Начальный сектор | Конечный сектор


1 | 0:00.00 | 4:17.65 | 0 | 19339
2 | 4:17.65 | 3:33.03 | 19340 | 35317
3 | 7:50.68 | 3:41.54 | 35318 | 51946
4 | 11:32.47 | 3:46.00 | 51947 | 68896
5 | 15:18.47 | 3:36.17 | 68897 | 85113
6 | 18:54.64 | 5:52.55 | 85114 | 111568
7 | 24:47.44 | 3:32.31 | 111569 | 127499
8 | 28:20.00 | 6:37.71 | 127500 | 157345
9 | 34:57.71 | 5:19.34 | 157346 | 181304
10 | 40:17.30 | 5:59.26 | 181305 | 208255
11 | 46:16.56 | 4:25.71 | 208256 | 228201
12 | 50:42.52 | 7:07.49 | 228202 | 260275
13 | 57:50.26 | 5:58.61 | 260276 | 287186
14 | 63:49.12 | 0:59.74 | 287187 | 291685
15 | 64:49.11 | 3:15.65 | 291686 | 306375
16 | 68:05.01 | 4:41.18 | 306376 | 327468
17 | 72:46.19 | 2:09.23 | 327469 | 337166
18 | 74:55.42 | 4:25.69 | 337167 | 357110

Трек 1

Имя файла C:UsersvitalMusic01 Dedicated.wav

Длина предзазора 0:00:02.00

Пиковый уровень 100.0 %
Скорость извлечения 4.9 X
Качество трека 100.0 %
CRC теста D4AB5355
CRC копии D4AB5355
Точное извлечение (достоверность 2) 700D03DB
Копирование... OK

Трек 2

Имя файла C:UsersvitalMusic02 Hold You.wav

Длина предзазора 0:00:02.00

Пиковый уровень 100.0 %
Скорость извлечения 5.1 X
Качество трека 100.0 %
CRC теста 7BBC3400
CRC копии 7BBC3400
Точное извлечение (достоверность 2) 861E6640
Копирование... OK

Трек 3

Имя файла C:UsersvitalMusic03 The Summer.wav

Длина предзазора 0:00:02.00

Пиковый уровень 93.8 %
Скорость извлечения 5.5 X
Качество трека 100.0 %
CRC теста 86F5EC88
CRC копии 86F5EC88
Точное извлечение (достоверность 2) DE7E7908
Копирование... OK

Трек 4

Имя файла C:UsersvitalMusic04 The Fields Of Love.wav

Длина предзазора 0:00:02.00

Пиковый уровень 93.8 %
Скорость извлечения 5.9 X
Качество трека 100.0 %
CRC теста F38813BF
CRC копии F38813BF
Точное извлечение (достоверность 2) 609EF749
Копирование... OK

Трек 5

Имя файла C:UsersvitalMusic05 I Don't Wanna Stop.wav

Длина предзазора 0:00:02.00

Пиковый уровень 99.9 %
Скорость извлечения 6.2 X
Качество трека 100.0 %
CRC теста 4B992096
CRC копии 4B992096
Точное извлечение (достоверность 2) 3A1EDDA0
Копирование... OK

Трек 6

Имя файла C:UsersvitalMusic06 Love Will Find You.wav

Длина предзазора 0:00:02.00

Пиковый уровень 93.8 %
Скорость извлечения 6.9 X
Качество трека 100.0 %
CRC теста 974C23C9
CRC копии 974C23C9
Точное извлечение (достоверность 2) 0F514BCE
Копирование... OK

Трек 7

Имя файла C:UsersvitalMusic07 Let U Go.wav

Длина предзазора 0:00:02.00

Пиковый уровень 100.0 %
Скорость извлечения 6.9 X
Качество трека 100.0 %
CRC теста 8E06A89B
CRC копии 8E06A89B
Точное извлечение (достоверность 1) E78A0165
Копирование... OK

Трек 8

Имя файла C:UsersvitalMusic08 See U Again.wav

Длина предзазора 0:00:02.00

Пиковый уровень 93.8 %
Скорость извлечения 7.7 X
Качество трека 100.0 %
CRC теста 86E58D07
CRC копии 86E58D07
Точное извлечение (достоверность 2) A077B278
Копирование... OK

Трек 9

Имя файла C:UsersvitalMusic09 Long Way Home.wav

Длина предзазора 0:00:02.00

Пиковый уровень 99.9 %
Скорость извлечения 7.9 X
Качество трека 100.0 %
CRC теста A150BA67
CRC копии A150BA67
Точное извлечение (достоверность 2) ADC38174
Копирование... OK

Трек 10

Имя файла C:UsersvitalMusic10 You're Not Alone.wav

Длина предзазора 0:00:02.00

Пиковый уровень 100.0 %
Скорость извлечения 8.4 X
Качество трека 100.0 %
CRC теста 2F5EC662
CRC копии 2F5EC662
Точное извлечение (достоверность 2) DC0AEADA
Копирование... OK

Трек 11

Имя файла C:UsersvitalMusic11 Emotion.wav

Длина предзазора 0:00:02.00

Пиковый уровень 100.0 %
Скорость извлечения 7.6 X
Качество трека 99.9 %
CRC теста 13A63F2C
CRC копии 13A63F2C
Точное извлечение (достоверность 1) 0034907E
Копирование... OK

Трек 12

Имя файла C:UsersvitalMusic12 My Dreams.wav

Длина предзазора 0:00:02.00

Пиковый уровень 100.0 %
Скорость извлечения 9.1 X
Качество трека 100.0 %
CRC теста 40611CA9
CRC копии 40611CA9
Точное извлечение (достоверность 2) 2AF6D6EC
Копирование... OK

Трек 13

Имя файла C:UsersvitalMusic13 Movin Melodies.wav

Длина предзазора 0:00:02.00

Пиковый уровень 100.0 %
Скорость извлечения 9.5 X
Качество трека 100.0 %
CRC теста 8286C42E
CRC копии 8286C42E
Точное извлечение (достоверность 2) 3F1BC795
Копирование... OK

Трек 14

Имя файла C:UsersvitalMusic14 Zwichenstuck.wav

Длина предзазора 0:00:02.00

Пиковый уровень 95.0 %
Скорость извлечения 3.4 X
Качество трека 100.0 %
CRC теста 565435CF
CRC копии 565435CF
Точное извлечение (достоверность 2) F373C2A0
Копирование... OK

Трек 15

Имя файла C:UsersvitalMusic15 9 P.M..wav

Длина предзазора 0:00:02.00

Пиковый уровень 98.8 %
Скорость извлечения 7.8 X
Качество трека 99.9 %
CRC теста 90CA232B
CRC копии 90CA232B
Точное извлечение (достоверность 2) E7AA0D55
Копирование... OK

Трек 16

Имя файла C:UsersvitalMusic16 Enigmatic Encounter.wav

Длина предзазора 0:00:02.00

Пиковый уровень 93.8 %
Скорость извлечения 9.7 X
Качество трека 100.0 %
CRC теста 95E2EC90
CRC копии 95E2EC90
Точное извлечение (достоверность 2) 71B66742
Копирование... OK

Трек 17

Имя файла C:UsersvitalMusic17 The First Tones.wav

Длина предзазора 0:00:02.01

Пиковый уровень 86.5 %
Скорость извлечения 8.7 X
Качество трека 100.0 %
CRC теста D90B0B79
CRC копии D90B0B79
Точное извлечение (достоверность 2) F8A775B4
Копирование... OK

Трек 18

Имя файла C:UsersvitalMusic18 Kayama.wav

Длина предзазора 0:00:02.00

Пиковый уровень 100.0 %
Скорость извлечения 8.8 X
Качество трека 99.9 %
CRC теста A0059315
CRC копии A0059315
Точное извлечение (достоверность 2) CB3FB036
Копирование... OK

Все треки извлечены точно

Ошибок не произошло

Конец отчёта

==== Контрольная сумма отчёта 04C991A76D6C1CE236DDE476716B141D1C80D0C00ADCCE01490176ACD68F1DC8 ====

`

Содержание индексной карты (.CUE)

`
REM GENRE Electronic
REM DATE 2003
REM DISCID 24129912
REM COMMENT "ExactAudioCopy v1.5"
PERFORMER "ATB"
TITLE "The Best Of"
REM COMPOSER ""
FILE "01 Dedicated.wav" WAVE
TRACK 01 AUDIO
TITLE "Dedicated"
PERFORMER "ATB"
REM COMPOSER ""
FLAGS DCP
INDEX 01 00:00:00
TRACK 02 AUDIO
TITLE "Hold You"
PERFORMER "ATB"
REM COMPOSER ""
FLAGS DCP
INDEX 00 04:15:65
FILE "02 Hold You.wav" WAVE
INDEX 01 00:00:00
TRACK 03 AUDIO
TITLE "The Summer"
PERFORMER "ATB"
REM COMPOSER ""
FLAGS DCP
INDEX 00 03:31:03
FILE "03 The Summer.wav" WAVE
INDEX 01 00:00:00
TRACK 04 AUDIO
TITLE "The Fields Of Love"
PERFORMER "ATB"
REM COMPOSER ""
FLAGS DCP
INDEX 00 03:39:54
FILE "04 The Fields Of Love.wav" WAVE
INDEX 01 00:00:00
TRACK 05 AUDIO
TITLE "I Don't Wanna Stop"
PERFORMER "ATB"
REM COMPOSER ""
FLAGS DCP
INDEX 00 03:44:00
FILE "05 I Don't Wanna Stop.wav" WAVE
INDEX 01 00:00:00
TRACK 06 AUDIO
TITLE "Love Will Find You"
PERFORMER "ATB"
REM COMPOSER ""
FLAGS DCP
INDEX 00 03:34:17
FILE "06 Love Will Find You.wav" WAVE
INDEX 01 00:00:00
TRACK 07 AUDIO
TITLE "Let U Go"
PERFORMER "ATB"
REM COMPOSER ""
FLAGS DCP
INDEX 00 05:50:55
FILE "07 Let U Go.wav" WAVE
INDEX 01 00:00:00
TRACK 08 AUDIO
TITLE "See U Again"
PERFORMER "ATB"
REM COMPOSER ""
FLAGS DCP
INDEX 00 03:30:31
FILE "08 See U Again.wav" WAVE
INDEX 01 00:00:00
TRACK 09 AUDIO
TITLE "Long Way Home"
PERFORMER "ATB"
REM COMPOSER ""
FLAGS DCP
INDEX 00 06:35:71
FILE "09 Long Way Home.wav" WAVE
INDEX 01 00:00:00
TRACK 10 AUDIO
TITLE "You're Not Alone"
PERFORMER "ATB"
REM COMPOSER ""
FLAGS DCP
INDEX 00 05:17:34
FILE "10 You're Not Alone.wav" WAVE
INDEX 01 00:00:00
TRACK 11 AUDIO
TITLE "Emotion"
PERFORMER "ATB"
REM COMPOSER ""
FLAGS DCP
INDEX 00 05:57:26
FILE "11 Emotion.wav" WAVE
INDEX 01 00:00:00
TRACK 12 AUDIO
TITLE "My Dreams"
PERFORMER "ATB"
REM COMPOSER ""
FLAGS DCP
INDEX 00 04:23:71
FILE "12 My Dreams.wav" WAVE
INDEX 01 00:00:00
TRACK 13 AUDIO
TITLE "Movin Melodies"
PERFORMER "ATB"
REM COMPOSER ""
FLAGS DCP
INDEX 00 07:05:49
FILE "13 Movin Melodies.wav" WAVE
INDEX 01 00:00:00
TRACK 14 AUDIO
TITLE "Zwichenstuck"
PERFORMER "ATB"
REM COMPOSER ""
FLAGS DCP
INDEX 00 05:56:61
FILE "14 Zwichenstuck.wav" WAVE
INDEX 01 00:00:00
TRACK 15 AUDIO
TITLE "9 P.M."
PERFORMER "ATB"
REM COMPOSER ""
FLAGS DCP
INDEX 00 00:57:74
FILE "15 9 P.M..wav" WAVE
INDEX 01 00:00:00
TRACK 16 AUDIO
TITLE "Enigmatic Encounter"
PERFORMER "ATB"
REM COMPOSER ""
FLAGS DCP
INDEX 00 03:13:65
FILE "16 Enigmatic Encounter.wav" WAVE
INDEX 01 00:00:00
TRACK 17 AUDIO
TITLE "The First Tones"
PERFORMER "ATB"
REM COMPOSER ""
FLAGS DCP
INDEX 00 04:39:17
FILE "17 The First Tones.wav" WAVE
INDEX 01 00:00:00
TRACK 18 AUDIO
TITLE "Kayama"
PERFORMER "ATB"
REM COMPOSER ""
FLAGS DCP
INDEX 00 02:07:23
FILE "18 Kayama.wav" WAVE
INDEX 01 00:00:00

`

Скриншот спектра частот

image image

Об исполнителе (группе)

Андре Таннебергер — немецкий музыкант и музыкальный продюсер, диджей, автор песен. Получил мировую известность после выхода синглов «9 PM », «Don’t Stop!», «Killer», записанных им под псевдонимом ATB.

Скриншот:

imageimageimageimageimageimage


More at ibit.to
And ibit.uno
And ibit.am
And ibit.ws

Comments

1 week ago

еще залил [CD] ATB - The DJ In The Mix 3 - 2006, FLAC (tracks)

Files

Stream

Downloading Seeding (Electronic) [CD] ATB - The Best Of - 2003, FLAC (tracks), lossless from to 0 peers.
of
0 b/s / ↗0 b/s