• 0
  • 0
  • done
Download

Description

image

ECM Selected Recordings

Egberto Gismonti

Label : ECM

Жанр : ECM Sound / Brazilian Jazz / Brazilian Folk / World Fusion / Structured Improvisation / Avant-Garde / Samba

Год выпуска : 2004

Формат : FLAC (tracks)

Продолжительность : 74:27

Трэклист :

  1. Ensaio de escola da samba (Danca dos Escravos) 8:57
    1. Kalimba Lua Cheia 5:17
    2. Cavaquinho 8:00
    3. Bianca 6:43
    4. Danca No. 1 5:22
    5. 10 Anos 7:32
    6. Lundu 6:34
    7. Frevo 5:54
    8. Selva amazonica / Pau rolou 20:03

Доп. информация :

в записи принимали участие:

Egberto Gismonti

guitars, piano, flutes, wood flutes, kalimba, surdo, voice, cooking bells

Nando Carneiro

guitar

Zeca Assumpcao

doubel-bass

Jacques Morelenbaum

cello

Nana Vasconcelos

percussion, berimbau

Mauro Senise

alto saxophone

Nene

drums

Lithuanian State Symphony Orchestra
Gintaras Rinkevicius

conductor

Recordings 1977-95

коротко об этом альбоме

The complexity of Brazil, its interweaving of cultures, finds its echo in the music of Egberto Gismonti who draws on resources both “sophisticated” and “primitive”- from European classical music to the samba school to the music of the Xingu Indians and the sounds of the rainforest, from folk musics, from jazz. Highly trained as a pianist, Gismonti adapted pianistic technique in innovative manner on his customised 8- and 10- and 14-string guitars. It is his guitar artistry which is at the forefront of his :rarum collection.

подробно об этом альбоме

Egberto Gismonti's volume in the excellent ECM Rarum series contains material from seven of his ten albums for the label as a leader, none from the 124 recordings on his own label distributed by ECM. It hardly matters. Gismonti is the most enigmatic and mercurial of the artists on the roster. Being from Rio de Janeiro, Brazil, he has made a life of delving deep into his country's magical musical framework that draws into itself and expands upon the many cultures that have intersected with it from Africa, Europe, and the United States. The music contained here finds Gismonti, ever the shamanistic gadfly conjurer, singing and playing no less than eight instruments, from percussion to guitars to flutes. The settings range from the stunning solo guitar of "Cavaquinho," where classical and Indian notions dovetail one another, to more conventional quartets such as the one found on "Ensaio de Escola de Samba" with another guitar, cello, and double bass, or the string players on "10 Anos," which features his piano playing in a jazz quartet with saxophone. And then there is "Frevo," a work that reflects not only Gismonti's knowledge and frenetic approach to counterpoint as it manifests itself in Brazilian and European classical music, but the frenzy of Carnaval as it engages his pianism to a symphony orchestra. These selections are sequenced nearly perfectly and offer a radiant and ambitious portrait of one of the most revered and misunderstood musicians ECM has ever recorded.
Thom Jurek
http://www.allmusic.com/cg/amg.dll?p=amg&sql=10:anftxqqaldte

скрытый текст

Отчёт EAC об извлечении, выполненном 4. апреля 2008, 14:52 для диска:
Egberto Gismonti / Selected Recordings Rarum XI

Дисковод: TSSTcorpCDDVDW SH-S203D Adapter: 2 ID: 1
Режим чтения: Достоверный (C2: нет, Точный поток: да, Отключение кэша: да)
Коррекция смещения при чтении: 6
Способность читать области Lead-in и Lead-out : Нет

Выходной формат: Внутренние WAV-операции
44.100 Гц; 16 бит; стерео

Другие параметры:
Заполнение пропущенных сэмплов тишиной : Да
Удаление блоков с тишиной в начале и конце : Нет
Встроенный Win32-интерфейс для Win NT/2000

Трек 1
Имя файла C:Documents and Settings(01) Ensaio de escola de samba - Egberto Gismonti.wav

Пиковый уровень 97.7 %
Качество трека 100.0 %
CRC теста B69260DC
CRC копии B69260DC
Копирование... OK

Трек 2
Имя файла C:Documents and Settings(02) Kalimba - Egberto Gismonti.wav

Пиковый уровень 61.2 %
Качество трека 99.9 %
CRC теста 994FDE01
CRC копии 994FDE01
Копирование... OK

Трек 3
Имя файла C:Documents and Settings(03) Cavaquinho - Egberto Gismonti.wav

Пиковый уровень 71.2 %
Качество трека 100.0 %
CRC теста FCD2FBE7
CRC копии FCD2FBE7
Копирование... OK

Трек 4
Имя файла C:Documents and Settings(04) Bianca - Egberto Gismonti.wav

Пиковый уровень 61.4 %
Качество трека 100.0 %
CRC теста 5F6360C5
CRC копии 5F6360C5
Копирование... OK

Трек 5
Имя файла C:Documents and Settings(05) Danca No. 1 - Egberto Gismonti.wav

Пиковый уровень 94.3 %
Качество трека 100.0 %
CRC теста D3D756AF
CRC копии D3D756AF
Копирование... OK

Трек 6
Имя файла C:Documents and Settings(06) 10 Anos - Egberto Gismonti.wav

Пиковый уровень 54.6 %
Качество трека 100.0 %
CRC теста 955F0632
CRC копии 955F0632
Копирование... OK

Трек 7
Имя файла C:Documents and Settings(07) Lundu - Egberto Gismonti.wav

Пиковый уровень 84.2 %
Качество трека 100.0 %
CRC теста FCBA268F
CRC копии FCBA268F
Копирование... OK

Трек 8
Имя файла C:Documents and Settings(08) Frevo - Egberto Gismonti.wav

Пиковый уровень 80.3 %
Качество трека 100.0 %
CRC теста DDD6D0EB
CRC копии DDD6D0EB
Копирование... OK

Трек 9
Имя файла C:Documents and Settings(09) Selva Amazonica - Egberto Gismonti.wav

Пиковый уровень 77.7 %
Качество трека 100.0 %
CRC теста EACB8365
CRC копии EACB8365
Копирование... OK

Ошибок не произошло

Конец отчёта

image


More at ibit.to
And ibit.uno
And ibit.am
And ibit.ws

Comments

13 years ago

:rarum I–XX

Files

(01) Ensaio de escola de samba - Egberto Gismonti.flac 41 MB
(02) Kalimba - Egberto Gismonti.flac 26 MB
(03) Cavaquinho - Egberto Gismonti.flac 33 MB
(04) Bianca - Egberto Gismonti.flac 29 MB
(05) Danca No. 1 - Egberto Gismonti.flac 22 MB
(06) 10 Anos - Egberto Gismonti.flac 33 MB
(07) Lundu - Egberto Gismonti.flac 24 MB
(08) Frevo - Egberto Gismonti.flac 26 MB
(09) Selva Amazonica - Egberto Gismonti.flac 81 MB
CD-info.txt 2.9 kB
Egberto Gismonti - Selected Recordings Rarum XI.m3u -
Selected Recordings Rarum XI.cue 1.2 kB
Selected Recordings Rarum XI.log 2.6 kB
cover-.gif 15 kB

Stream

Downloading Seeding (ECM Sound / Brazilian Jazz / Brazilian Folk / World Fusion / Structured Improvisation / Avant-Garde / Samba) ECM Selected Recordings — Egberto Gismonti — 1977-95 / 2004, FLAC (tracks) from to 0 peers.
of
0 b/s / ↗0 b/s