Warning! Use a VPN When Downloading Torrents!
Your IP Address is . Location
Your Internet Provider can see when you download torrents! Hide your IP Address with a VPN
ibit warns: You must use Trust.Zone VPN to hide your torrenting. It's FREE HIDE ME NOW

  • -
  • -
  • done
  • (Disco, Euro-Disco, Italo-Disco) [CD] VA - Various ‎– Turbo Disco - Лучшие Хиты Дискотек 3 - 2002, FLAC (tracks), lossless
  • 782 MB
  • vitalikkontr
  • Disco Euro Italo Various Turbo 2002 FLAC tracks lossless
  • Disco, Italo-Disco, Euro-Disco

Description

Various ‎– Turbo Disco - Лучшие Хиты Дискотек 3

image

Жанр : Disco, Euro-Disco, Italo-Disco

Носитель : CD https://www.discogs.com/ru/Various-Turbo-Disco-Лучшие-Хиты-Дискотек-3/release/15101784

Страна-производитель диска (релиза) : Ukraine

Год издания : 2002

Издатель (лейбл) :
WWW Records
BMG Russia ‎– none

Номер по каталогу : НН-66CD/02

Аудиокодек : FLAC (*.flac)

Тип рипа : tracks

Продолжительность : 01:15:43

Источник : собственная покупка

Наличие сканов в содержимом раздачи : есть

Треклист :
01. Scotch - Disco Band
02. Baby's Gang - Challenger
03. Patty Ryan - Love Is The Name
04. Joy (9) - Japanese Girls
05. Jam Tronik - Another Day in Paradise
06. Mr. Zivago - Little Russian
07. K.B. Caps - Do You Really Need Me
08. Ken Laszlo - Mary Ann
09. Lian Ross - Fantasy
10. Fancy - A Voice In The Dark
11. Joy (9) - Gimme Gimme All Of You
12. Michael Bedford - Tonight
13. Linda Jo Rizzo - L'v Got The Night
14. Grant Miller - Colder Than Ice
15. Mozzart - Jasmin China Girl
16. Silent Circle - Megamix
17. Gazebo - Masterpiece
18. Roger Meno - Love Really Hurts Without You1

Лог создания рипа

`
EZ CD Audio Converter 9.1.3 [64-bit]

Log creation date: Jun 23 2020 00:56

Device: [F:] ASUS DRW-24D5MT 2.00

Profile : Normal
Read mode : Normal
C2 pointers : Disabled
AccurateCDDA : Enabled
Verify audio : Disabled
Drive spin-up : Disabled
Sample offset : 0

Detect pre-gaps: : Disabled
Detect pre-emphasis (subcode) : Disabled
Detect pre-emphasis (TOC) : Enabled
Read UPC/EAN : Disabled
Read ISRCs : Disabled

Calculate ReplayGain : Disabled
Apply ReplayGain : Disabled
Fade In : Disabled
Fade Out : Disabled
Delete leading digital silence : Disabled
Add leading silence : Disabled
Delete trailing digital silence : Disabled
Add trailing silence : Disabled

Output format : .flac | Free Lossless Audio Codec
Encoder : FLAC 1.3.3
Bit depth : Auto
Channels : Auto
Sample rate : Auto
Compression level : Uncompressed

Track Start Length Start sector End sector Pre-gap ISRC Pre-emphasis

[X] 01 00:00.00 05:06.12 0 22961 No
[X] 02 05:06.12 05:19.25 22962 46911 No
[X] 03 10:25.37 03:38.13 46912 63274 No
[X] 04 14:03.50 03:30.20 63275 79044 No
[X] 05 17:33.70 03:44.41 79045 95885 No
[X] 06 21:18.36 04:14.20 95886 114955 No
[X] 07 25:32.56 03:43.13 114956 131693 No
[X] 08 29:15.69 03:00.69 131694 145262 No
[X] 09 32:16.63 03:40.48 145263 161810 No
[X] 10 35:57.36 04:00.41 161811 179851 No
[X] 11 39:58.02 03:50.50 179852 197151 No
[X] 12 43:48.52 03:27.55 197152 212731 No
[X] 13 47:16.32 05:44.27 212732 238558 No
[X] 14 53:00.59 05:33.33 238559 263566 No
[X] 15 58:34.17 02:51.69 263567 276460 No
[X] 16 61:26.11 06:13.01 276461 304436 No
[X] 17 67:39.12 04:22.22 304437 324108 No

[X] 18 72:01.34 03:49.51 324109 341334 No
Summary

18 total tracks
18 copied successfully
0 copied with errors
0 failed

Track Status CRC Filename

1 Success B4AB5076 "01. Scotch Disco Band.flac"
2 Success 3FD4B22E "02. Babys Gang Challenger.flac" 3 Success 7B45506B "03. Patty Ryan Love Is The Name Of The Game.flac" 4 Success 1E3546A9 "04. Joy Japanese Girls.flac" 5 Success 678FAABC "05. Jam Tronik Another Day In Paradise.flac" 6 Success 962359B9 "06. Mr. Ziwago Little Russian.flac" 7 Success 07A87A15 "07. K.B. Caps Do You Really Need Me.flac" 8 Success 06FB5DB6 "08. Ken Laszlo Mary Ann.flac" 9 Success 37010D62 "09. Lian Ross Fantasy.flac" 10 Success 3BB7D481 "10. Fansy A Voise In The Dark.flac" 11 Success FEEF1F36 "11. Joy Gimme Gimme All Of You.flac" 12 Success 8586BD13 "12. Michael Bredford Tonight.flac" 13 Success C246624F "13. Linda Jo Rizzo Iv Got The Night.flac"
14 Success 880A7D0C "14. Grant Miller Colder Than Ice.flac"
15 Success 4AA64381 "15. Mozzart Jasmin China Girl.flac"
16 Success 9C841DE1 "16. Silent Circle Megamix.flac"
17 Success C6B1E9E3 "17. Gazebo Masterpiese.flac"
18 Success 13BDC5E1 "18. Roger Meno Love Really Hurts Without You.flac"

Details

Track 1

Filename "01. Scotch Disco Band.flac"

CRC : B4AB5076

Finished successfully

Track 2

Filename "02. Baby`s Gang Challenger.flac"

CRC : 3FD4B22E

Finished successfully

Track 3

Filename "03. Patty Ryan Love Is The Name Of The Game.flac"

CRC : 7B45506B

Finished successfully

Track 4

Filename "04. Joy Japanese Girls.flac"

CRC : 1E3546A9

Finished successfully

Track 5

Filename "05. Jam Tronik Another Day In Paradise.flac"

CRC : 678FAABC

Finished successfully

Track 6

Filename "06. Mr. Ziwago Little Russian.flac"

CRC : 962359B9

Finished successfully

Track 7

Filename "07. K.B. Caps Do You Really Need Me.flac"

CRC : 07A87A15

Finished successfully

Track 8

Filename "08. Ken Laszlo Mary Ann.flac"

CRC : 06FB5DB6

Finished successfully

Track 9

Filename "09. Lian Ross Fantasy.flac"

CRC : 37010D62

Finished successfully

Track 10

Filename "10. Fansy A Voise In The Dark.flac"

CRC : 3BB7D481

Finished successfully

Track 11

Filename "11. Joy Gimme Gimme All Of You.flac"

CRC : FEEF1F36

Finished successfully

Track 12

Filename "12. Michael Bredford Tonight.flac"

CRC : 8586BD13

Finished successfully

Track 13

Filename "13. Linda Jo Rizzo I`v Got The Night.flac"

CRC : C246624F

Finished successfully

Track 14

Filename "14. Grant Miller Colder Than Ice.flac"

CRC : 880A7D0C

Finished successfully

Track 15

Filename "15. Mozzart Jasmin China Girl.flac"

CRC : 4AA64381

Finished successfully

Track 16

Filename "16. Silent Circle Megamix.flac"

CRC : 9C841DE1

Finished successfully

Track 17

Filename "17. Gazebo Masterpiese.flac"

CRC : C6B1E9E3

Finished successfully

Track 18

Filename "18. Roger Meno Love Really Hurts Without You.flac"

CRC : 13BDC5E1

Finished successfully

`

Содержание индексной карты (.CUE)

PERFORMER "Various Artists" TITLE "Turbo Disko 3" REM DATE "2002" REM GENRE "Miscellaneous" REM COMMENT "EZ CD Audio Converter 9.1.3 [64-bit]" FILE "01. Scotch Disco Band.flac" WAVE TRACK 01 AUDIO TITLE "Scotch / Disco Band" INDEX 01 00:00:00 FILE "02. Babys Gang Challenger.flac" WAVE
TRACK 02 AUDIO
TITLE "Babys Gang / Challenger" INDEX 01 00:00:00 FILE "03. Patty Ryan Love Is The Name Of The Game.flac" WAVE TRACK 03 AUDIO TITLE "Patty Ryan / Love Is The Name Of The Game" INDEX 01 00:00:00 FILE "04. Joy Japanese Girls.flac" WAVE TRACK 04 AUDIO TITLE "Joy / Japanese Girls" INDEX 01 00:00:00 FILE "05. Jam Tronik Another Day In Paradise.flac" WAVE TRACK 05 AUDIO TITLE "Jam Tronik / Another Day In Paradise" INDEX 01 00:00:00 FILE "06. Mr. Ziwago Little Russian.flac" WAVE TRACK 06 AUDIO TITLE "Mr. Ziwago / Little Russian" INDEX 01 00:00:00 FILE "07. K.B. Caps Do You Really Need Me.flac" WAVE TRACK 07 AUDIO TITLE "K.B. Caps / Do You Really Need Me" INDEX 01 00:00:00 FILE "08. Ken Laszlo Mary Ann.flac" WAVE TRACK 08 AUDIO TITLE "Ken Laszlo / Mary Ann" INDEX 01 00:00:00 FILE "09. Lian Ross Fantasy.flac" WAVE TRACK 09 AUDIO TITLE "Lian Ross / Fantasy" INDEX 01 00:00:00 FILE "10. Fansy A Voise In The Dark.flac" WAVE TRACK 10 AUDIO TITLE "Fansy / A Voise In The Dark" INDEX 01 00:00:00 FILE "11. Joy Gimme Gimme All Of You.flac" WAVE TRACK 11 AUDIO TITLE "Joy / Gimme Gimme All Of You" INDEX 01 00:00:00 FILE "12. Michael Bredford Tonight.flac" WAVE TRACK 12 AUDIO TITLE "Michael Bredford / Tonight" INDEX 01 00:00:00 FILE "13. Linda Jo Rizzo Iv Got The Night.flac" WAVE
TRACK 13 AUDIO
TITLE "Linda Jo Rizzo / I`v Got The Night"
INDEX 01 00:00:00
FILE "14. Grant Miller Colder Than Ice.flac" WAVE
TRACK 14 AUDIO
TITLE "Grant Miller / Colder Than Ice"
INDEX 01 00:00:00
FILE "15. Mozzart Jasmin China Girl.flac" WAVE
TRACK 15 AUDIO
TITLE "Mozzart / Jasmin China Girl"
INDEX 01 00:00:00
FILE "16. Silent Circle Megamix.flac" WAVE
TRACK 16 AUDIO
TITLE "Silent Circle / Megamix"
INDEX 01 00:00:00
FILE "17. Gazebo Masterpiese.flac" WAVE
TRACK 17 AUDIO
TITLE "Gazebo / Masterpiese"
INDEX 01 00:00:00
FILE "18. Roger Meno Love Really Hurts Without You.flac" WAVE
TRACK 18 AUDIO
TITLE "Roger Meno / Love Really Hurts Without You"
INDEX 01 00:00:00

`

Лог проверки качества

image

Скриншот спектра частот

image image

Скриншот

image imageimageimage


More at ibit.to
And ibit.uno
And ibit.am
And ibit.ws

Comments

3 weeks ago

⇒ В названии папки в раздаче необходимо указать VA, через любой разделитель. Цитата: 3.4 Название папки в раздаче должно содержать:- для раздачи единичного релиза исполнителя - в любом порядке: название исполнителя, год издания и название релиза (в случае раздачи сборника композиций разных исполнителей - VA или Various Artists), через любой разделитель: ⇒ Поскольку диск собственный, рип нужно выполнить рекомендованной для этого программой. Как просто снять точный рип аудио CD (инструкция)⇒ Переоформите, пожалуйста, и перезалейте торрент-файл.

3 weeks ago

Поскольку переделывать рип при помощи EAC вы не планируете, то в оформление раздачи необходимо поместить лог проверки качества (Audiochecker, AuCDtect Task Manager или CUE Corrector).Это необходимое условие для проставления сомнительного статуса раздаче, выполненной любым риппером, кроме, кроме EAC и XLD.

3 weeks ago

пожалуй скачаю, пока открыта дискуссия на важные темы...

Files

Stream

Downloading Seeding (Disco, Euro-Disco, Italo-Disco) [CD] VA - Various ‎– Turbo Disco - Лучшие Хиты Дискотек 3 - 2002, FLAC (tracks), lossless from to 0 peers.
of
0 b/s / ↗0 b/s