• 5
  • 36
  • done
Download

Description

THE IDOLM@STER CINDERELLA GIRLS 7thLIVE TOUR Special 3chord♪ Comical Pops! @MAKUHARI MESSE Torrent https://nyaa.si/view/1261728 | Object | Format | BitRate | | ------------- |:-------------:| -----:| | Video | H264 | CRF 25 | | Audio | LC-AAC | 320kbps | | Comment Audio | LC-AAC | 320kbps |

NOTE:SP DISC_MULTI ANGLE have 4 video steam ,please use potplayer or VLC media playerto switch video steam.
简体中文:提醒:SP DISC_MULTI ANGLE拥有多(4)条视频流,请使用 potplayer or VLC media player切换视频流。
ex. DAY1 DISC1 CODECS
Video

ID : 1 Format : AVC Format/Info : Advanced Video Codec Format profile : [email protected] Format settings : CABAC / 4 Ref Frames Format settings, CABAC : Yes Format settings, Reference frames : 4 frames Codec ID : VMPEG4/ISO/AVC Duration : 1 h 45 min Bit rate : 4 406 kb/s Width : 1 920 pixels Height : 1 080 pixels Display aspect ratio : 16:9 Frame rate mode : Variable Frame rate : 29.970 FPS Color space : YUV Chroma subsampling : 4:2:0 Bit depth : 8 bits Scan type : Progressive Bits/(Pixel*Frame) : 0.071 Stream size : 3.24 GiB (87%) Title : SAXC1026VIDEO Writing library : x264 core 158 r2984 3759fcb Encoding settings : cabac=1 / ref=3 / deblock=1:0:0 / analyse=0x3:0x113 / me=hex / subme=7 / psy=1 / psyrd=1.00:0.00 / mixedref=1 / merange=16 / chromame=1 / trellis=1 / 8x8dct=1 / cqm=0 / deadzone=21,11 / fastpskip=1 / chromaqpoffset=-2 / threads=6 / lookaheadthreads=1 / slicedthreads=0 / nr=0 / decimate=1 / interlaced=0 / bluraycompat=0 / constrainedintra=0 / bframes=3 / bpyramid=2 / badapt=1 / bbias=0 / direct=1 / weightb=1 / opengop=0 / weightp=2 / keyint=250 / keyintmin=25 / scenecut=40 / intrarefresh=0 / rclookahead=40 / rc=crf / mbtree=1 / crf=25.0 / qcomp=0.60 / qpmin=0 / qpmax=69 / qpstep=4 / ip_ratio=1.40 / aq=1:1.00 Language : Japanese Default : Yes Forced : No

Audio #1

ID : 2 Format : AAC LC Format/Info : Advanced Audio Codec Low Complexity Codec ID : AAAC-2 Duration : 1 h 45 min Bit rate : 321 kb/s Channel(s) : 2 channels Channel layout : L R Sampling rate : 48.0 kHz Frame rate : 46.875 FPS (1024 SPF) Compression mode : Lossy Stream size : 242 MiB (6%) Title : SAXC1026Audio Language : Japanese Default : Yes Forced : No

Audio #2

ID : 3 Format : AAC LC Format/Info : Advanced Audio Codec Low Complexity Codec ID : AAAC-2 Duration : 1 h 45 min Bit rate : 320 kb/s Channel(s) : 2 channels Channel layout : L R Sampling rate : 48.0 kHz Frame rate : 46.875 FPS (1024 SPF) Compression mode : Lossy Stream size : 241 MiB (6%) Title : SAXC1026Audio_Commentary Language : Japanese Default : No Forced : No

Menu

00:00:00.000 : ja:OPENING - Specical 3chord♪ 00:02:34.621 : ja:01.ミラーボール・ラブ 00:07:17.537 : ja:-MC- 00:15:12.044 : ja:02.Tulip 00:19:07.479 : ja:03.ミツボシ☆☆★ -Happily Ever AfterRemix- 00:23:39.151 : ja:04.ショコラ • ティアラ -Before Sunrise Remix- 00:28:22.367 : ja:05.輝く世界の魔法 ‐Magical Step Forward Remix- 00:31:51.509 : ja:06.Nothing but you 00:36:21.913 : ja:-BREAK TIME①- 00:42:37.688 : ja:07.PROUST EFFECT 00:47:05.255 : ja:08.未完成の歷史 00:52:24.241 : ja:09.Flip Flop ~For SS3A rearrange Mix~ 00:57:23.606 : ja:10.モ一レツ★世直しギルティ! 01:01:48.071 : ja:11.イリューヅョニス夕! 01:06:02.425 : ja:-BREAK TIME②- 01:12:27.643 : ja:-DANCE SHOW CASE- 01:14:51.753 : ja:12.クレイジークレイジー 01:19:44.346 : ja:13.Last Kiss 01:24:48.083 : ja:14.踊りまくろ☆ダンシング・ナイト 01:29:13.948 : ja:15.Nation Bule 01:34:49.984 : ja:16.夢をのぞいたら 01:39:03.737 : ja:-BREAK TIME③-

Preview Image:

DAY1_DISC1_Thumbnail Image DAY1_DISC2_Thumbnail Image DAY2_DISC1_Thumbnail Image DAY2_DISC2_Thumbnail Image


More at ibit.to
And ibit.uno
And ibit.am
And ibit.ws

Comments

Files

DAY1_DISC1.mkv 3.7 GB
DAY1_DISC1_BDMENU.mkv 395 MB
DAY1_DISC2.mkv 5.2 GB
DAY1_DISC2_BDMENU.mkv 348 MB
DAY1_千川ちひろによる開演前のご挨拶..mkv 91 MB
DAY2_DISC1.mkv 3.8 GB
DAY2_DISC1_BDMENU.mkv 396 MB
DAY2_DISC2.mkv 5.5 GB
DAY2_DISC2_BDMENU.mkv 415 MB
DAY2_千川ちひろによる開演前のご挨拶..mkv 70 MB
SP DISC_BDMENU.mkv 353 MB
SP DISC_MULTI ANGLE_DAY1_Secret Daybreak.mkv 583 MB
SP DISC_MULTI ANGLE_DAY1_TRUE COLORS.mkv 694 MB
SP DISC_MULTI ANGLE_DAY1_さよならアンドロメダ.mkv 709 MB
SP DISC_MULTI ANGLE_DAY1_ミラーボール・ラブ.mkv 825 MB
SP DISC_MULTI ANGLE_DAY1_夢をのぞいたら.mkv 485 MB
SP DISC_MULTI ANGLE_DAY2_Can’t Stop!!.mkv 914 MB
SP DISC_MULTI ANGLE_DAY2_Stage Bye Stage.mkv 809 MB
SP DISC_MULTI ANGLE_DAY2_お願い!シンデレラ.mkv 659 MB
SP DISC_MULTI ANGLE_DAY2_スパイスパラダイス.mkv 605 MB
SP DISC_MULTI ANGLE_DAY2_未完成の歴史.mkv 657 MB
SP DISC_VISUAL [email protected]_Yes! Party Time!!–Short Size-.mkv 115 MB
SP DISC_VISUAL [email protected]_クレイジークレイジー –Short Size-.mkv 80 MB
SP DISC_VISUAL [email protected]_バベル –Short Size-.mkv 204 MB
SP DISC_VISUAL [email protected]_ミラーボール・ラブ –Short Size-.mkv 204 MB
SP DISC_メイキング・舞台裏映像~Behind the Scenes~.mkv 2.6 GB

Stream

Downloading Seeding [BDRIP]THE [email protected] CINDERELLA GIRLS 7thLIVE TOUR Special 3chord♪ Funky [email protected] DOME[H264][AAC][MKV]With Chapter from to 0 peers.
of
0 b/s / ↗0 b/s