• -
  • -
  • done
Anonymous Download
  • Большая Ежегодная походно-лесная торрентовка в Санкт-Петербурге. 6-7 июля 2019.MTS
  • 9.2 GB
  • myster_ya
  • 2019 MTS
  • Место встречи изменить...
Warning! Use a VPN When Downloading Torrents!
Your IP Address is ,
Your Internet Provider can see when you download torrents! Hide your IP ADDRESS with a VPN
We strongly recommend Trust.Zone VPN to hide your torrenting. It's FREE!
DOWNLOAD VPN

Description

Год выпуска: 2019

Страна: С-Петербург

Жанр: Торрентовка

Продолжительность: 00:46:00

Качество: HDTV 1080p

Формат: MTS

Видео кодек: AVC

Аудио кодек: AC3

Video: MPEG4 Video (H264) 1920x1080 50fps [V: h264 high L4.2, yuv420p, 1920x1080]

Audio: Dolby AC3 48000Hz 6ch 448kbps [A: ac3, 48000 Hz, 5.1, 448 kb/s]

Media info

скрытый текст

General
ID : 0 (0x0)
Complete name : D:0006300010001.MTS
Format : BDAV
Format/Info : Blu-ray Video
File size : 8.55 GiB
Duration : 45 min 59 s
Overall bit rate mode : Variable
Overall bit rate : 26.6 Mb/s
Maximum Overall bit rate : 26.4 Mb/s
Recorded date : 2019-07-06 16:48:02+02:00
Writing application : Sony HDR-CX530E

Video
ID : 4113 (0x1011)
Menu ID : 1 (0x1)
Format : AVC
Format/Info : Advanced Video Codec
Format profile : [email protected]
Format settings : CABAC / 2 Ref Frames
Format settings, CABAC : Yes
Format settings, Reference : 2 frames
Format settings, GOP : M=1, N=12
Codec ID : 27
Duration : 45 min 59 s
Bit rate mode : Variable
Bit rate : 25.1 Mb/s
Maximum bit rate : 26.0 Mb/s
Width : 1 920 pixels
Height : 1 080 pixels
Display aspect ratio : 16:9
Frame rate : 50.000 FPS
Color space : YUV
Chroma subsampling : 4:2:0
Bit depth : 8 bits
Scan type : Progressive
Bits/(Pixel*Frame) : 0.242
Stream size : 8.06 GiB (94%)
IrisFNumber : 3.400000

Audio
ID : 4352 (0x1100)
Menu ID : 1 (0x1)
Format : AC-3
Format/Info : Audio Coding 3
Commercial name : Dolby Digital
Codec ID : 129
Duration : 45 min 59 s
Bit rate mode : Constant
Bit rate : 448 kb/s
Channel(s) : 6 channels
Channel layout : L R C LFE Ls Rs
Sampling rate : 48.0 kHz
Frame rate : 31.250 FPS (1536 SPF)
Bit depth : 16 bits
Compression mode : Lossy
Stream size : 147 MiB (2%)
Service kind : Complete Main

Скриншоты

скрытый текст

image


More at ibit.to
And ibit.uno
And ibit.ws

Comments

Files

Большая Ежегодная походно-лесная торрентовка в Санкт-Петербурге. 6-7 июля 2019.MTS 9.2 GB

Stream

Downloading Seeding Большая Ежегодная походно-лесная торрентовка в Санкт-Петербурге. 6-7 июля 2019.MTS from to 0 peers.
of
0 b/s / ↗0 b/s