• -
  • -
  • done
Sponsored Downloadondemand_video
  • Дитя робота_2019_WEB-DLRip.avi
  • 1.6 GB
  • порошков
  • 2019 WEB DLRip avi
  • Зарубежное кино
67%

I Am Mother (2019)

  • Thriller Science Fiction
  • A teenage girl is raised underground by a robot "Mother", designed to repopulate the earth following an extinction event. But their unique bond is threatened when an inexplicable stranger arrives with alarming news.

    expand_more
    English

    Description

    Дитя робота / I Am Mother

    image

    Страна : Австралия

    Жанр : фантастика, триллер

    Год выпуска : 2019

    Продолжительность : 01:53:33


    Перевод : Профессиональный (многоголосый закадровый) |

    СВ Студия

    Субтитры : нет

    Оригинальная аудиодорожка : нет


    Режиссер : Грант Спьютор / Grant Sputorei


    В ролях : Роуз Бирн, Хилари Суэнк, Клара Ругор, Люк Хокер, Тейлия Стурзэйкер, Джейкоб Нолан, Хэйзел Сэндери, Саммер Лентон, Мэдди Лентон


    Описание : После глобального катаклизма человечество вымирает. В подземном бункере автоматически активизируется аварийная программа, и робот-гуманоид «Мать» выращивает из эмбриона человеческого ребенка. Девушка, воспитанная под бережным присмотром «Матери», никогда не видела ни поверхности Земли, ни других людей. Но однажды ее мир переворачивается, когда на пороге убежища появляется женщина с просьбой о помощи...


    imageimage


    Качество видео : WEB-DLRip

    Формат видео : AVI

    Видео : 720x304 (2.37:1), 24.000 fps, XviD build 73 ~1444 kbps avg, 0.28 bit/pixel

    Аудио : 48 kHz, AC3 Dolby Digital, 3/2 (L,C,R,l,r) + LFE ch, ~384 kbps


    Сэмпл


    MediaInfo

    ``

    Код:

    Формат                                   : AVI
    Формат/Информация                        : Audio Video Interleave
    Размер файла                             : 1,46 Гбайт
    Продолжительность                        : 1 ч. 53 м.
    Общий поток                              : 1838 Кбит/сек
    Название фильма                          : Дитя робота2019WEB-DLRip
    Программа кодирования                    : VirtualDubMod 1.5.10.3 | www.virtualdub-fr.org || (build 2550/release)
    Авторское право                          : порошков

    Видео
    Идентификатор                            : 0
    Формат                                   : MPEG-4 Visual
    Профиль формата                          : Advanced Simple@L5
    Настройки формата                        : BVOP1 / Custom Matrix
    Параметр BVOP формата                    : 1
    Параметр QPel формата                    : Нет
    Параметр GMC формата                     : Без точки перехода
    Параметр матрицы формата                 : Выборочная
    Идентификатор кодека                     : XVID
    Идентификатор кодека/Подсказка           : XviD
    Продолжительность                        : 1 ч. 53 м.
    Битрейт                                  : 1444 Кбит/сек
    Ширина                                   : 720 пикселей
    Высота                                   : 304 пикселя
    Соотношение сторон                       : 2,35:1
    Частота кадров                           : 24,000 кадра/сек
    Цветовое пространство                    : YUV
    Субдискретизация насыщенности            : 4:2:0
    Битовая глубина                          : 8 бит
    Тип развёртки                            : Прогрессивная
    Метод сжатия                             : С потерями
    Бит/(Пиксели*Кадры)                      : 0.275
    Размер потока                            : 1,15 Гбайт (79%)
    Библиотека кодирования                   : XviD 73

    Аудио
    Идентификатор                            : 1
    Формат                                   : AC-3
    Формат/Информация                        : Audio Coding 3
    Коммерческое название                    : Dolby Digital
    Идентификатор кодека                     : 2000
    Продолжительность                        : 1 ч. 53 м.
    Вид битрейта                             : Постоянный
    Битрейт                                  : 384 Кбит/сек
    Каналы                                   : 6 каналов
    ChannelLayout                            : L R C LFE Ls Rs
    Частота                                  : 48,0 КГц
    Частота кадров                           : 31,250 кадров/сек (1536 SPF)
    Битовая глубина                          : 16 бит
    Метод сжатия                             : С потерями
    Размер потока                            : 312 Мбайт (21%)
    Выравнивание                             : Разделение по промежуткам
    Продолжительность промежутка             : 42  мс. (1,00 видеокадр)
    Время предзагрузки промежутка            : 500  мс.
    ServiceKind/String                       : Complete Main

    Скриншоты

    image image image
    image image image


    More at ibit.to
    And ibit.uno
    And ibit.ws

    Reviews

    Comments

    Files

    Дитя робота_2019_WEB-DLRip.avi 1.6 GB

    Stream

    Downloading Seeding Дитя робота_2019_WEB-DLRip.avi from to 0 peers.
    of
    0 b/s / ↗0 b/s