• -
  • -
  • done
Download
  • Контрудар (Владимир Шевченко) [1985, драма, военный, DVDRip]
  • 1.5 GB
  • bm11
  • 1985 DVDRip
  • Кино СССР

Description

Контрудар

image

Год выпуска : 1985

Жанр : драма, военный

Продолжительность : 01:17:58.640 (116966 frames)

Субтитры : нет

Режиссер : Владимир Шевченко

В ролях : Виктор Павлов, Михаил Ульянов, Геннадий Корольков, Всеволод Поатов, Александр Денисов, Николай Бурляев

Описание : В ноябре 1943 года войска генерала Ватутина глубоко вклинилась в тылы противника на правом берегу Днепра. Несмотря на неодобрение Ставки, Ватутин отдал приказ прекратить наступление и перейти к обороне...

Качество : DVDRip

Формат : AVI

Видео кодек : XviD

Аудио кодек : АС3

Видео : 720x400 (1.80:1), 25 fps, XviD build 73 ~2277 kbps avg, 0.32 bit/pixel

Аудио : 48 kHz, AC3 Dolby Digital, 3/2 (L,C,R,l,r) + LFE ch, ~384.00 kbps avg

Скриншоты

image image image image image image image image image image image image image image

Медиаинфо

H:004 Мои раздачиКонтрудар 1,46kontrudar1.46bybm11.avi
General
Complete name : H:004 Мои раздачиКонтрудар 1,46kontrudar
1.46bybm11.avi
Format : AVI
Format/Info : Audio Video Interleave
File size : 1.45 GiB
Duration : 1h 17mn
Overall bit rate : 2 671 Kbps
Director : bm11
Writing application : VirtualDubMod 1.5.10.3 | www.virtualdub-fr.org || (build 2550/release)
Video
Format : MPEG-4 Visual
Format profile : Streaming [email protected]
Format settings, BVOP : Yes
Format settings, QPel : No
Format settings, GMC : No warppoints
Format settings, Matrix : Custom
Codec ID : XVID
Codec ID/Hint : XviD
Duration : 1h 17mn
Bit rate : 2 278 Kbps
Width : 720 pixels
Height : 400 pixels
Display aspect ratio : 16/9
Frame rate : 25.000 fps
Resolution : 24 bits
Colorimetry : 4:2:0
Scan type : Progressive
Bits/(Pixel*Frame) : 0.316
Stream size : 1.24 GiB (85%)
Writing library : XviD 73
Audio
Format : AC-3
Format/Info : Audio Coding 3
Codec ID : 2000
Duration : 1h 17mn
Bit rate mode : Constant
Bit rate : 384 Kbps
Channel(s) : 6 channels
Channel positions : Front: L C R, Surround: L R, LFE
Sampling rate : 48.0 KHz
Stream size : 214 MiB (14%)
Alignment : Split accross interleaves
Interleave, duration : 40 ms (1.00 video frame)
Interleave, preload duration : 500 ms

Семпл

http://multi-up.com/1270749

Исходник

https://rutracker.org/forum/viewtopic.php?t=991405

Сравнение

https://rutracker.org/forum/viewtopic.php?t=3015686
https://screenshotcomparison.com/comparison/7956/picture:1

image


More at ibit.to
And ibit.uno
And ibit.am
And ibit.ws

Comments

Files

Stream

Downloading Seeding Контрудар (Владимир Шевченко) [1985, драма, военный, DVDRip] from to 0 peers.
of
0 b/s / ↗0 b/s