• -
  • -
  • done
Sponsored Downloadondemand_video
  • Одиноким предоставляется общежитие.1983.DVB.mkv
  • 1.8 GB
  • dmitrio7197
  • 1983 DVB mkv
  • Наше кино

Description


Одиноким предоставляется общежитие


image

Жанр : Мелодрама, комедия

Год выпуска : 1983

Продолжительность : 01:23:46


Режиссер : Самсон Самсонов


В ролях : Наталья Гундарева, Александр Михайлов, Тамара Сёмина, Фрунзик Мкртчян, Елена Драпеко, Виктор Павлов, Татьяна Божок, Татьяна Агафонова, Елена Майорова, Вера Трофимова, Елена Скороходова, Людмила Коныгина, Елена Антонова, Мария Скворцова, Людмила Шевель, Владимир Симонов


Описание : В общежитие ткачих комендантом направляется бывший моряк. Он сразу же узнает, что душой вверенного ему коллектива является Вера Голубева, занимающаяся устройством личной жизни своих подруг. «Сваха» по призванию, она организовала нечто вроде бесплатного брачного агентства, собирая данные о потенциальных женихах со всей страны. Между Верой и новым комендантом отношения поначалу не складываются. Но потом он влюбляется в эту обаятельную и деятельную женщину. Однажды в свадебной машине будут и они с Верой…


Доп. информация

:

Производство : "Мосфильм", СССР, 1983 г.

Сценарист : Аркадий Инин

Оператор : Виктор Якушев

Композитор : Евгений (Еужениу) Дога

Художник : Пётр Киселёв


image image image


Качество видео : DVB

Формат видео : MKV

Видео кодек : H.264

Аудио кодек : MP2

Видео : 720@1047x576 анаморф (16:9), 25 fps, ~2549 kbps, 0.246 bit/pixel

Аудио : 48 kHz, 2 channels (dual mono), ~192 kbps


MediaInfo

`Общее
Уникальный идентификатор : 219789485257911972667479720579254887929 (0xA559EA44C7224579974584C3BDFAA5F9)
Полное имя : C:TorrentОдиноким предоставляется общежитие.1983.DVBОдиноким предоставляется общежитие.1983.DVB.mkv
Формат : Matroska
Версия формата : Version 4 / Version 2
Размер файла : 1,64 Гбайт
Продолжительность : 1 ч. 23 м.
Общий поток : 2796 Кбит/сек
Дата кодирования : UTC 2019-06-12 08:14:12
Программа кодирования : mkvmerge v6.1.0 ('Old Devil') built on Mar 4 2013 09:10:42
Библиотека кодирования : libebml v1.3.0 + libmatroska v1.4.0

Видео
Идентификатор : 1
Формат : AVC
Формат/Информация : Advanced Video Codec
Профиль формата : Main@L3
Параметр CABAC формата : Да
Параметр ReFrames формата : 4 кадра
Параметр GOP формата : M=4, N=28
Идентификатор кодека : V_MPEG4/ISO/AVC
Продолжительность : 1 ч. 23 м.
Битрейт : 2549 Кбит/сек
Ширина : 720 пикселей
Высота : 576 пикселей
Соотношение сторон : 16:9
Режим частоты кадров : Постоянный
Частота кадров : 25,000 кадров/сек
Стандарт вещания : Component
Цветовое пространство : YUV
Субдискретизация насыщенности : 4:2:0
Битовая глубина : 8 бит
Тип развёртки : Чересстрочная
Метод сохранения типа развёртки : Раздельные поля
Порядок развёртки : Верхнее поле первое
Бит/(Пиксели*Кадры) : 0.246
Размер потока : 1,49 Гбайт (91%)
Default : Да
Forced : Нет
Цветовой диапазон : Limited
Основные цвета : BT.601 PAL
Характеристики трансфера : BT.470 System B, BT.470 System G
Коэффициенты матрицы : BT.601

Аудио
Идентификатор : 2
Формат : MPEG Audio
Версия формата : Version 1
Профиль формата : Layer 2
Идентификатор кодека : A_MPEG/L2
Идентификатор кодека/Подсказка : MP2
Продолжительность : 1 ч. 23 м.
Вид битрейта : Постоянный
Битрейт : 192 Кбит/сек
Каналы : 2 канала
Частота : 48,0 КГц
Метод сжатия : С потерями
Размер потока : 115 Мбайт (7%)
Язык : Russian
Default : Да
Forced : Нет `

Скриншоты

image


image image image image image image image
image image image image image image image

Сравнения

В DVB с Культуры нет всплывающей рекламы и логотипов каналов на изображении фильма; не так зелен, как HDTVRip-AVC. На DVD качество намного хуже.

DVB:
image image image image
DVD5:
image image image image
HDTVRip-AVC:
image image image image
SATRip-AVC:
image image image image


More at ibit.to
And ibit.uno
And ibit.ws

Reviews

Comments

Files

Одиноким предоставляется общежитие.1983.DVB.mkv 1.8 GB

Stream

Downloading Seeding Одиноким предоставляется общежитие.1983.DVB.mkv from to 0 peers.
of
0 b/s / ↗0 b/s