• 0
  • 4,294,967,295
  • done
Download
  • Иванов катер (Марк Осепьян) [1972, Киноповесть, DVDRip]
  • 1.4 GB
  • bloomsbury
  • 1972 DVDRip
  • Кино СССР

Description

Иванов катер

image

Жанр : Киноповесть

Год выпуска : 1972

Продолжительность : 01:36:48

Режиссёр : Марк Осепьян

В ролях : Петр Вельяминов, Валентина Талызина, Юрий Орлов, Евгений Лебедев, Афанасий Кочетков, Антонина Богданова, Игорь Пушкарев, Вера Ивлева, Владлен Паулус

Описание : В тесном кубрике катера, капитаном которого давно ходит Иван Бурлаков и где матросом работает Еленка, вовсе не в шутку называемая им женой, появляется новый работник - помощник капитана Сергей. Внешне энергичный и открытый, он быстро добивается любви Еленки. И также быстро - увольнения Ивана...

Второй фильм режиссера Марка осепьяна, получившего к тому времени известность по фильму «Три дня Виктора Чернышева». Картине была установлена четвертая группа по оплате (197 копий), что явилось официальным основанием ее «замораживания». Ограниченный прокат 1974 года тем не менее собрал 1.0 млн. зрителей. В 1987 году фильм восстановлен и выпущен на экран.

Рейтинг: image

Доп. информация : Релиз сделан с этого DVD5 (Custom) по «просьбам трудящихся» и с учетом жалоб в этой раздаче DVDRip на дефект звуковой дорожки («На 73 минуте звук пропадает»). В данной раздаче указанный дефект звуковой дорожки отсутствует image

Семпл : http://multi-up.com/1288110

Качество видео : DVDRip

Формат видео : AVI

Видео : XviD, 688x304 (2,25:1), 25 fps, ~1952 kbps avg, 0.373 bit/pixel

Аудио : AC3, 48 kHz, 128 kbps, 1.0

MediaInfo

Общее
Полное имя : F:Ivanov.kater.1972.DVDRip.avi
Формат : AVI
Формат/Информация : Audio Video Interleave
Размер файла : 1,41 Гбайт
Продолжительность : 1 ч. 36 м.
Общий поток : 2089 Кбит/сек
Название фильма : Иванов катер (1972)
Программа кодирования : VirtualDubMod 1.5.10.2 (build 2540/release)
Библиотека кодирования : VirtualDubMod build 2540/release
Авторское право : Bloomsbury

Видео
Идентификатор : 0
Формат : MPEG-4 Visual
Профиль формата : Advanced [email protected]
Настройки формата : BVOP2
Параметр BVOP формата : 2
Параметр QPel формата : Нет
Параметр GMC формата : Без точки перехода
Параметр матрицы формата : Default (MPEG)
Идентификатор кодека : XVID
Идентификатор кодека/Подсказка : XviD
Продолжительность : 1 ч. 36 м.
Битрейт : 1952 Кбит/сек
Ширина : 688 пикселей
Высота : 304 пикселя
Соотношение сторон : 2,25:1
Частота кадров : 25,000 кадров/сек
Цветовое пространство : YUV
Субдискретизация насыщенности : 4:2:0
Битовая глубина : 8 бит
Тип развёртки : Прогрессивная
Метод сжатия : С потерями
Бит/(Пиксели*Кадры) : 0.373
Размер потока : 1,32 Гбайт (93%)
Библиотека кодирования : XviD 69

Аудио
Идентификатор : 1
Формат : AC-3
Формат/Информация : Audio Coding 3
Коммерческое название : Dolby Digital
Идентификатор кодека : 2000
Продолжительность : 1 ч. 36 м.
Вид битрейта : Постоянный
Битрейт : 128 Кбит/сек
Каналы : 1 канал
ChannelLayout : C
Частота : 48,0 КГц
Частота кадров : 31,250 кадров/сек (1536 SPF)
Битовая глубина : 16 бит
Метод сжатия : С потерями
Размер потока : 88,6 Мбайт (6%)
Выравнивание : Разделение по промежуткам
Продолжительность промежутка : 40 мс. (1,00 видеокадр)
Время предзагрузки промежутка : 500 мс.
Заголовок : Russian[rus/ru]
ServiceKind/String : Complete Main

Скриншоты

image image image image image image

Сравнение раздач
https://screenshotcomparison.com/comparison/20370


More at ibit.to
And ibit.uno
And ibit.am
And ibit.ws

Comments

Files

Stream

Downloading Seeding Иванов катер (Марк Осепьян) [1972, Киноповесть, DVDRip] from to 0 peers.
of
0 b/s / ↗0 b/s