• 2
  • 32
Downloadondemand_video
0%

NJPW Presents CMLL Fantastica Mania 2019 - Jan 18, 2019 Tokyo (2019)

Fantastica Mania 2019 was a professional wrestling tour, scripted and co-produced by the Japanese New Japan Pro-Wrestling (NJPW) promotion and the Mexican Consejo Mundial de Lucha Libre (CMLL) promotion. The tour started on January 11 and ran until January 21, 2019, with shows taking place in Osaka, Ehime, Kyoto, Gifu, Chiba and Tokyo. At Korakuen Hall.

English

Description

**https://MovCr.to

Hunger (2020) Hindi 720p HotShots Originals WEBRip x264 AAC 150MB - MovCr

image

Plot:

A lonely housewife Stuck in a sexless marriage, discovers that her marriage lacks passion and surprise, and is seduced by the possibility of finding those sensations already forgotten in a young man who is her tailor. She desperately wants to sexually be satisfied by her husband, but he's losing interest. Tired from trying, she falls for her tailor, unable to resist she ends up sharing a passionate relationship with him. Director: Abhijeet Harishchandra

image

Video

ID                                       : 1

Format                                   : AVC

Format/Info                              : Advanced Video Codec

Format profile                           : [email protected]

Format settings                          : 2 Ref Frames

Format settings, CABAC                   : No

Format settings, Reference frames        : 2 frames

Codec ID                                 : V_MPEG4/ISO/AVC

Duration                                 : 21 min 25 s

Bit rate                                 : 900 kb/s

Width                                    : 1 280 pixels

Height                                   : 532 pixels

Display aspect ratio                     : 2.40:1

Frame rate mode                          : Constant

Frame rate                               : 23.976 (23976/1000) FPS

Color space                              : YUV

Chroma subsampling                       : 4:2:0

Bit depth                                : 8 bits

Scan type                                : Progressive

Bits/(Pixel*Frame)                       : 0.055

Stream size                              : 134 MiB (94%)

Title                                    : MovCr

Audio

ID                                       : 2

Format                                   : AAC LC

Format/Info                              : Advanced Audio Codec Low Complexity

Codec ID                                 : A_AAC-2

Duration                                 : 21 min 25 s

Bit rate                                 : 56.0 kb/s

Channel(s)                               : 2 channels

Channel layout                           : L R

Sampling rate                            : 32.0 kHz

Frame rate                               : 31.250 FPS (1024 SPF)

Compression mode                         : Lossy

Delay relative to video                  : -32 ms

Stream size                              : 8.58 MiB (6%)

Title                                    : MovCr

Default                                  : Yes

Forced                                   : No

image

image

image

image

image

image

image

image

image

image**


More at ibit.to
And ibit.uno
And ibit.am
And ibit.ws

Reviews

Comments

Files

(18+) www.MovCr.to - Hunger (2020) Hindi 720p HotShots Originals WEBRip x264 AAC 150MB - MovCr.mkv 143 MB

Stream

Downloading Seeding (18+) www.MovCr.to - Hunger (2020) Hindi 720p HotShots Originals WEBRip x264 AAC 150MB - MovCr.mkv from to 0 peers.
of
0 b/s / ↗0 b/s