• -
  • -
  • done
  • Страна Гирляндия . Уральские пельмени. 01.01.2019.mkv
  • 1.9 GB
  • intellect
  • 2019 mkv
  • 🎅 НОВОГОДНИЙ РАЗДЕЛ🎄

Description

Страна Гирляндия .

Уральские Пельмени, новогодний выпуск (Эфир 01.01.2019)


image

Дата/Год выпуска : 2018

Страна : Россия

Жанр : Юмор

Продолжительность : 01:11:24

Перевод : Не требуется

Режиссер : Леонид Коновалов

Телеканал : СТС

Описание : В эту страну визу дают раз в год
В эту страну летают не самолеты, а сани
Из неё привозят не магнитики, а елочные игрушки
И ею управляют дедушка с внучкой
Это «Страна Гирляндия» - праздничная программа Шоу «Уральские Пельмени»!

Качество : WEB-DL

Формат : MKV

Видео : H.264, 1280х720p, 16:9, 3500 kbps, 25fps

Аудио : AAC, 128 kbps, 44,1 kHz, 2ch

MediaInfo

`General
Unique ID : 283410603039276312211552794453230681859 (0xD536E58DCE038BFB6917CFCC510AFF03)
Complete name : Страна Гирляндия . Уральские пельмени. 01.01.2019.mkv
Format : Matroska
Format version : Version 4 / Version 2
File size : 1.81 GiB
Duration : 1 h 11 min
Overall bit rate : 3 631 kb/s
Encoded date : UTC 2020-01-09 17:28:07
Writing application : mkvmerge v38.0.0 ('The Silent Type') 64-bit
Writing library : libebml v1.3.9 + libmatroska v1.5.2

Video
ID : 1
Format : AVC
Format/Info : Advanced Video Codec
Format profile : [email protected]
Format settings : CABAC / 5 Ref Frames
Format settings, CABAC : Yes
Format settings, ReFrames : 5 frames
Codec ID : VMPEG4/ISO/AVC
Duration : 1 h 11 min
Bit rate : 3 500 kb/s
Width : 1 280 pixels
Height : 720 pixels
Display aspect ratio : 16:9
Frame rate mode : Constant
Frame rate : 25.000 FPS
Color space : YUV
Chroma subsampling : 4:2:0
Bit depth : 8 bits
Scan type : Progressive
Bits/(Pixel*Frame) : 0.152
Stream size : 1.75 GiB (96%)
Writing library : x264 core 148
Encoding settings : cabac=1 / ref=5 / deblock=1:0:0 / analyse=0x3:0x113 / me=hex / subme=8 / psy=1 / psy
rd=1.00:0.00 / mixedref=1 / merange=16 / chromame=1 / trellis=2 / 8x8dct=1 / cqm=0 / deadzone=21,11 / fastpskip=1 / chromaqpoffset=-2 / threads=22 / lookaheadthreads=3 / slicedthreads=0 / nr=0 / decimate=1 / interlaced=0 / bluraycompat=0 / constrainedintra=0 / bframes=3 / bpyramid=2 / badapt=1 / bbias=0 / direct=3 / weightb=1 / opengop=0 / weightp=2 / keyint=250 / keyintmin=25 / scenecut=0 / intrarefresh=0 / rclookahead=50 / rc=abr / mbtree=1 / bitrate=3500 / ratetol=1.0 / qcomp=0.60 / qpmin=0 / qpmax=69 / qpstep=4 / ipratio=1.40 / aq=1:1.00
Default : Yes
Forced : No

Audio
ID : 2
Format : AAC
Format/Info : Advanced Audio Codec
Format profile : LC
Codec ID : A_AAC-2
Duration : 1 h 11 min
Bit rate : 128 kb/s
Channel(s) : 2 channels
Channel positions : Front: L R
Sampling rate : 44.1 kHz
Frame rate : 43.066 FPS (1024 SPF)
Compression mode : Lossy
Delay relative to video : -80 ms
Stream size : 65.4 MiB (4%)
Language : Russian
Default : Yes
Forced : Yes `

Скриншоты

image image image

image image image


More at ibit.to
And ibit.uno
And ibit.am
And ibit.ws

Comments

Files

Страна Гирляндия . Уральские пельмени. 01.01.2019.mkv 1.9 GB

Stream

Downloading Seeding Страна Гирляндия . Уральские пельмени. 01.01.2019.mkv from to 0 peers.
of
0 b/s / ↗0 b/s