• 0
  • 0
  • done
Sponsored Download
  • Les Talens Lyriques & Christophe Rousset - Couperin Les Nations (2018) [24-96]
  • 2.1 GB
  • ipokemongo
  • Les Talens Lyriques Christophe Rousset Couperin Nations 2018
  • Hi-Res stereo и многоканальная

Description

Les Talens Lyriques & Christophe Rousset / Couperin - Les Nations

image

Формат записи/Источник записи : [TR24][OF]

Наличие водяных знаков : Нет

Год издания/переиздания диска : 2019

Жанр : Classical

Издатель (лейбл) : Aparté

Продолжительность : 01:48:42

Наличие сканов в содержимом раздачи : Буклет PDF

Треклист

Couperin, F: Les Nations, Premier Ordre, La Française

22:39
01. I. Sonade 6:31
02. II. Allemande 4:07
03. III. Première Courante 1:34
04. IV. Seconde Courante 1:26
05. V. Sarabande 2:48
06. VI. Gigue 1:17
07. VII. Chaconne ou passacaille 2:54
08. VIII. Gavotte 0:53
09. IX. Menuet 1:09

Couperin, F: Les Nations: Second Ordre 'L'Espagnole'

31:00
10. I. Sonade 8:23
11. II. Allemande 3:05
12. III. Première Courante 1:52
13. IV. Seconde Courante 1:49
14. V. Sarabande 3:22
15. VI. Gigue lourée 2:28
16. VII. Gavotte 0:59
17. VIII. Rondeau 3:08
18. IX. Bourrée, Double 1:29
19. X. Passacaille 4:25

Couperin, F: Les Nations, Troisième ordre 'L'Impériale'

29:52
20. I. Sonade 10:21
21. II. Allemande 2:53
22. III. Première Courante 1:53
23. IV. Seconde Courante 1:41
24. V. Sarabande 3:16
25. VI. Bourrée 0:38
26. VII. Gigue 1:13
27. VIII. Rondeau 2:27
28. IX. Chaconne 5:30

Couperin, F: Les Nations, Quatrième Ordre, La Piémontaise

25:08
29. X. Menuet 0:56
30. I. Sonade 8:54
31. II. Allemande 2:53
32. III. Première Courante 1:46
33. IV. Seconde Courante 2:03
34. V. Sarabande 3:54
35. VI. Rondeau 2:37
36. VII. Gigue 2:05


Les Talens Lyriques
Christophe Rousset


Контейнер : FLAC (*.flac)

Тип рипа : tracks

Разрядность : 24/96

Формат : PCM

Количество каналов : 2.0

BackCover

image

Лог проверки качества

`foobar2000 1.4.3 / Dynamic Range Meter 1.1.1
log date: 2019-05-15 20:24:49


Analyzed: Les Talens Lyriques & Christophe Rousset / Couperin: Les Nations
DR Peak RMS Duration Track

DR12 -0.40 dB -17.82 dB 6:31 01-Les Nations, Premier Ordre, La Française: I. Sonade
DR11 -3.93 dB -19.12 dB 4:08 02-Les Nations, Premier Ordre, La Française: II. Allemande
DR11 -3.36 dB -18.16 dB 1:34 03-Les Nations, Premier Ordre, La Française: III. Première Courante
DR12 -4.91 dB -20.33 dB 1:26 04-Les Nations, Premier Ordre, La Française: IV. Seconde Courante
DR10 -8.36 dB -22.51 dB 2:49 05-Les Nations, Premier Ordre, La Française: V. Sarabande
DR11 -3.14 dB -17.43 dB 1:17 06-Les Nations, Premier Ordre, La Française: VI. Gigue
DR11 -2.47 dB -17.08 dB 2:54 07-Les Nations, Premier Ordre, La Française: VII. Chaconne ou passacaille
DR11 -5.48 dB -19.45 dB 0:53 08-Les Nations: Premier Ordre, La Française: VIII. Gavotte
DR11 -4.63 dB -19.41 dB 1:10 09-Les Nations, Premier Ordre, La Française: IX. Menuet
DR12 -0.87 dB -17.97 dB 8:23 10-Les Nations, Second Ordre, L'Espagnole: I. Sonade
DR12 -2.32 dB -17.19 dB 3:05 11-Les Nations, Second Ordre, L'Espagnole: II. Allemande
DR12 -3.09 dB -19.45 dB 1:53 12-Les Nations, Second Ordre, L'Espagnole: III. Première Courante
DR11 -5.48 dB -19.82 dB 1:50 13-Les Nations, Second Ordre, L'Espagnole: IV. Seconde Courante
DR12 -5.78 dB -21.91 dB 3:22 14-Les Nations, Second Ordre, L'Espagnole: V. Sarabande
DR11 -1.70 dB -15.72 dB 2:29 15-Les Nations, Second Ordre, L'Espagnole: VI. Gigue lourée
DR10 -6.90 dB -20.19 dB 1:00 16-Les Nations, Second Ordre, L'Espagnole: VII. Gavotte
DR11 -1.81 dB -18.38 dB 3:09 17-Les Nations, VIII. Rondeau
DR12 -4.37 dB -18.81 dB 1:29 18-Les Nations, Second Ordre, L'Espagnole: IX. Bourrée, Double
DR11 -1.40 dB -16.68 dB 4:25 19-Les Nations, Second Ordre, L'Espagnole: X. Passacaille
DR12 -1.96 dB -17.60 dB 10:22 20-Les Nations, Troisième Ordre, L'Impériale: I. Sonade
DR11 -4.32 dB -19.39 dB 2:53 21-Les Nations, Troisième Ordre, L'Impériale: II. Allemande
DR11 -1.92 dB -16.33 dB 1:53 22-Les Nations, III. Première Courante
DR11 -6.37 dB -20.46 dB 1:42 23-Les Nations, Troisième Ordre, L'Impériale: IV. Seconde Courante
DR10 -7.74 dB -21.07 dB 3:16 24-Les Nations, Troisième Ordre, L'Impériale: V. Sarabande
DR11 -6.83 dB -20.51 dB 0:38 25-Les Nations, Troisième Ordre, L'Impériale: VI. Bourrée
DR12 -2.38 dB -16.53 dB 1:13 26-Les Nations, Troisième Ordre, L'Impériale: VII. Gigue
DR12 -2.97 dB -18.12 dB 2:28 27-Les Nations, Troisième Ordre, L'Impériale: VIII. Rondeau
DR12 -1.85 dB -17.60 dB 5:30 28-Les Nations, IX. Chaconne
DR12 -5.68 dB -23.14 dB 0:57 29-Les Nations, Troisième Ordre, L'Impériale: X. Menuet
DR12 -2.32 dB -18.33 dB 8:55 30-Les Nations, Quatrième Ordre, La Piémontaise: I. Sonade
DR11 -2.36 dB -17.33 dB 2:54 31-Les Nations, Quatrième Ordre, La Piémontaise: II. Allemande
DR11 -4.30 dB -17.91 dB 1:47 32-Les Nations, Quatrième Ordre, La Piémontaise: III. Première Courante
DR11 -2.88 dB -17.33 dB 2:03 33-Les Nations, Quatrième Ordre, La Piémontaise: IV. Seconde Courante
DR11 -7.41 dB -22.53 dB 3:54 34-Les Nations, Quatrième Ordre, La Piémontaise: V. Sarabande
DR11 -2.06 dB -17.48 dB 2:38 35-Les Nations, Quatrième Ordre, La Piémontaise: VI. Rondeau

DR12 -4.54 dB -18.91 dB 2:05 36-Les Nations, Quatrième Ordre, La Piémontaise: VII. Gigue

Number of tracks: 36
Official DR value: DR11

Samplerate: 96000 Hz
Channels: 2
Bits per sample: 24
Bitrate: 2568 kbps
Codec: FLAC
================================================================================ `

Источник (релизер) : https://www.prestomusic.com/classical/products/8505572--francois-couperin-les-nations


More at ibit.to
And ibit.uno
And ibit.ws

Comments

Files

Les Talens Lyriques & Christophe Rousset - Couperin Les Nations (2018) [24-96]20. Les Nations, Troisième Ordre, L'Impériale - I. Sonade.flac 207 MB
Les Talens Lyriques & Christophe Rousset - Couperin Les Nations (2018) [24-96]02. Les Nations, Premier Ordre, La Française - II. Allemande.flac 80 MB
Les Talens Lyriques & Christophe Rousset - Couperin Les Nations (2018) [24-96]03. Les Nations, Premier Ordre, La Française - III. Première Courante.fl 31 MB
Les Talens Lyriques & Christophe Rousset - Couperin Les Nations (2018) [24-96]04. Les Nations, Premier Ordre, La Française - IV. Seconde Courante.flac 29 MB
Les Talens Lyriques & Christophe Rousset - Couperin Les Nations (2018) [24-96]05. Les Nations, Premier Ordre, La Française - V. Sarabande.flac 51 MB
Les Talens Lyriques & Christophe Rousset - Couperin Les Nations (2018) [24-96]06. Les Nations, Premier Ordre, La Française - VI. Gigue.flac 26 MB
Les Talens Lyriques & Christophe Rousset - Couperin Les Nations (2018) [24-96]07. Les Nations, Premier Ordre, La Française - VII. Chaconne ou passacai 58 MB
Les Talens Lyriques & Christophe Rousset - Couperin Les Nations (2018) [24-96]08. Les Nations - Premier Ordre, La Française - VIII. Gavotte.flac 18 MB
Les Talens Lyriques & Christophe Rousset - Couperin Les Nations (2018) [24-96]09. Les Nations, Premier Ordre, La Française - IX. Menuet.flac 22 MB
Les Talens Lyriques & Christophe Rousset - Couperin Les Nations (2018) [24-96]10. Les Nations, Second Ordre, L'Espagnole - I. Sonade.flac 162 MB
Les Talens Lyriques & Christophe Rousset - Couperin Les Nations (2018) [24-96]11. Les Nations, Second Ordre, L'Espagnole - II. Allemande.flac 61 MB
Les Talens Lyriques & Christophe Rousset - Couperin Les Nations (2018) [24-96]12. Les Nations, Second Ordre, L'Espagnole - III. Première Courante.flac 38 MB
Les Talens Lyriques & Christophe Rousset - Couperin Les Nations (2018) [24-96]13. Les Nations, Second Ordre, L'Espagnole - IV. Seconde Courante.flac 35 MB
Les Talens Lyriques & Christophe Rousset - Couperin Les Nations (2018) [24-96]14. Les Nations, Second Ordre, L'Espagnole - V. Sarabande.flac 63 MB
Les Talens Lyriques & Christophe Rousset - Couperin Les Nations (2018) [24-96]15. Les Nations, Second Ordre, L'Espagnole - VI. Gigue lourée.flac 50 MB
Les Talens Lyriques & Christophe Rousset - Couperin Les Nations (2018) [24-96]16. Les Nations, Second Ordre, L'Espagnole - VII. Gavotte.flac 18 MB
Les Talens Lyriques & Christophe Rousset - Couperin Les Nations (2018) [24-96]17. Les Nations, VIII. Rondeau.flac 62 MB
Les Talens Lyriques & Christophe Rousset - Couperin Les Nations (2018) [24-96]18. Les Nations, Second Ordre, L'Espagnole - IX. Bourrée, Double.flac 30 MB
Les Talens Lyriques & Christophe Rousset - Couperin Les Nations (2018) [24-96]19. Les Nations, Second Ordre, L'Espagnole - X. Passacaille.flac 88 MB
Les Talens Lyriques & Christophe Rousset - Couperin Les Nations (2018) [24-96]01. Les Nations, Premier Ordre, La Française - I. Sonade.flac 128 MB
Les Talens Lyriques & Christophe Rousset - Couperin Les Nations (2018) [24-96]21. Les Nations, Troisième Ordre, L'Impériale - II. Allemande.flac 56 MB
Les Talens Lyriques & Christophe Rousset - Couperin Les Nations (2018) [24-96]22. Les Nations, III. Première Courante.flac 38 MB
Les Talens Lyriques & Christophe Rousset - Couperin Les Nations (2018) [24-96]23. Les Nations, Troisième Ordre, L'Impériale - IV. Seconde Courante.fla 34 MB
Les Talens Lyriques & Christophe Rousset - Couperin Les Nations (2018) [24-96]24. Les Nations, Troisième Ordre, L'Impériale - V. Sarabande.flac 60 MB
Les Talens Lyriques & Christophe Rousset - Couperin Les Nations (2018) [24-96]25. Les Nations, Troisième Ordre, L'Impériale - VI. Bourrée.flac 13 MB
Les Talens Lyriques & Christophe Rousset - Couperin Les Nations (2018) [24-96]26. Les Nations, Troisième Ordre, L'Impériale - VII. Gigue.flac 24 MB
Les Talens Lyriques & Christophe Rousset - Couperin Les Nations (2018) [24-96]27. Les Nations, Troisième Ordre, L'Impériale - VIII. Rondeau.flac 49 MB
Les Talens Lyriques & Christophe Rousset - Couperin Les Nations (2018) [24-96]28. Les Nations, IX. Chaconne.flac 109 MB
Les Talens Lyriques & Christophe Rousset - Couperin Les Nations (2018) [24-96]29. Les Nations, Troisième Ordre, L'Impériale - X. Menuet.flac 18 MB
Les Talens Lyriques & Christophe Rousset - Couperin Les Nations (2018) [24-96]30. Les Nations, Quatrième Ordre, La Piémontaise - I. Sonade.flac 173 MB
Les Talens Lyriques & Christophe Rousset - Couperin Les Nations (2018) [24-96]31. Les Nations, Quatrième Ordre, La Piémontaise - II. Allemande.flac 58 MB
Les Talens Lyriques & Christophe Rousset - Couperin Les Nations (2018) [24-96]32. Les Nations, Quatrième Ordre, La Piémontaise - III. Première Courant 36 MB
Les Talens Lyriques & Christophe Rousset - Couperin Les Nations (2018) [24-96]33. Les Nations, Quatrième Ordre, La Piémontaise - IV. Seconde Courante. 40 MB
Les Talens Lyriques & Christophe Rousset - Couperin Les Nations (2018) [24-96]34. Les Nations, Quatrième Ordre, La Piémontaise - V. Sarabande.flac 71 MB
Les Talens Lyriques & Christophe Rousset - Couperin Les Nations (2018) [24-96]35. Les Nations, Quatrième Ordre, La Piémontaise - VI. Rondeau.flac 52 MB
Les Talens Lyriques & Christophe Rousset - Couperin Les Nations (2018) [24-96]36. Les Nations, Quatrième Ordre, La Piémontaise - VII. Gigue.flac 41 MB
Les Talens Lyriques & Christophe Rousset - Couperin Les Nations (2018) [24-96]booklet.pdf 5.4 MB
Les Talens Lyriques & Christophe Rousset - Couperin Les Nations (2018) [24-96]cover.jpg 631 kB
Les Talens Lyriques & Christophe Rousset - Couperin Les Nations (2018) [24-96]foo_dr.txt 4.5 kB

Stream

Downloading Seeding Les Talens Lyriques & Christophe Rousset - Couperin Les Nations (2018) [24-96] from to 0 peers.
of
0 b/s / ↗0 b/s