• 0
  • 0
  • done
Sponsored Download
  • Caldara - Maddalena ai Piedi di Cristo - Guillon (2018)
  • 706 MB
  • caterina sforza
  • Caldara Maddalena Piedi Cristo Guillon 2018
  • Классическая и современная ака

Description

Caldara - Maddalena ai Piedi di Christo

image

Жанр : Classical oratorio

Страна-производитель диска : Made in Austria

Год издания диска : 2018

Издатель (лейбл) : Alpha Classics ‎

Номер по каталогу : Alpha 426

Дата записи : 2017

Аудиокодек : FLAC

Тип рипа : image+.cue

Битрейт аудио : lossless

Продолжительность : 61'16 + 66'39 / 02:07:22

Источник : релизер

сайт-источник/ник/другое : Carlos, подарок; Caterina Sforza - работа с cue, доп. сканы

Наличие сканов в содержимом раздачи : да

Треклист

CD1

` Prima Parte

1-1 Sinfonia 2:12
1-2 Aria "Dormi, O Cara, E Formi Il Sonno" (Amor Terreno) 2:23
1-3 Recitativo "Così Godea la Mente" (Amor Terreno) 0:30
1-4 Ritornell - Aria "Deh Librate" (Amor Terreno) 2:03
1-5 Recitativo "Del Sonno Lusinghiero" (Amor Terreno, Amor Celeste) 0:33
1-6 Aria "La Ragione, S'un Alma Conseglia (Amore Celeste) 2:35
1-7 Recitativo "Così Sciolta Da' Lacci" (Amor Terreno, Amor Celeste) 0:32
1-8 Duo "Alle Vittorie Del Celeste/Terreno Amore Duo (Amor Terreno, Amor Celeste) 0:31
1-9 Recitativo "Oimè, Troppo Importuno" (Maddalena) 1:42
1-10 Ritornello - Aria "In Un Bivio è Il Mio Volere" (Maddalena) 3:14
1-11 Recitativo "Maddalena, Nel Cielo (Maddalena) 0:48
1-12 Ritornello - Aria "Spera, Consolati" (Amor Celeste) 2:50
1-13 Recitativo "Troppo Dura è la Legge" (Amor Celeste) 0:50
1-14 Aria "Fin Che Danzan Le Grazie Sul Viso" (Amore Terreno) 3:28
1-15 Recitativo "Cieli, Che Mai Risolvo?" (Maddalena) 0:18
1-16 Aria "Se Nel Ciel Splendon Le Stelle" (Maddalena) 2:59
1-17 Recitativo "Germana, Al Ciel, Deh, Volgi" (Marta, Maddalena) 0:52
1-18 Aria "Sospira, Piangi" (Marta) 0:24
1-19 Recitativo "Ma Queste Tante Mie" (Marta, Maddalena) 0:54
1-20 Ritornello - Aria "Non Sdegna Il Ciel Le Lacrime" (Marta) 3:13
1-21 Recitativo "Omai Spezza Quel Nodo" (Maddalena) 0:47
1-22 Aria "Offran Lagrime Gl'occhi (Maddalena) 0:36
1-23 Aria "Pompe Inutili, Che Il Fasto Animate" (Maddalena) 6:58
1-24 Recitativo "E Voi, Dorati Crini" (Maddalena, Amor Celeste, Amor Terreno) 2:50
1-25 Recitativo "Maddalena, Coraggio!" (Maddalena) 0:48
1-26 Aria "Diletti, Non Più Vanto" (Maddalena) 4:13
1-27 Recitativo "Dell'Anima Tua Grande" (Marta, Fariseo) 1:16
1-28 Ritornello - Aria "Dove Il Re Sapiente Eresse" (Fariseo) 1:59
1-29 Recitativo "E Cristo Il Vero Tempio" (Marta) 0:29
1-30 Aria "Vattene, Corri, Vola" (Marta) 2:14
1-31 Recitativo "Marta, Ho Risolto" (Maddalena) 0:33
1-32 Ritornello - Aria "Voglio Piangere" (Maddalena) 3:01
1-33 Recitativo "A Tuo Dispetto, Amor Terreno" (Amore Celeste, Amor Terreno) 0:33
1-34 Duo "La mia virtude, il mio valor è forte" (Amor Celeste, Amore Terreno) 2:23 `

CD2

` Seconda Parte

2-1 Sinfonia 1:17
2-2 Recitativo "Donna Grande, E Fastosa" (Fariseo) 0:39
2-3 Aria "Parti, Che Di Virtù Il Gradito Splendor" (Fariseo) 2:22
2-4 Recitativo "Cingan Pure Quest'alma" (Maddalena, Cristo, Fariseo) 2:35
2-5 Aria "Chi Con Sua Cetra" (Maddalena) 3:13
2-6 Recitativo "Ma Se Quest'huom" (Fariseo, Maddalena) 1:08
2-7 Aria "In Lagrime Stemprato" (Maddalena) 4:48
2-8 Recitativo "Oh Ciel, Chi Vide Mai" (Amore Celeste, Amor Terreno, Cristo) 0:54
2-9 Ritornello - Aria "Ride Il Ciel E Gl'astri Brillano (Cristo) 2:03
2-10 Recitativo "A Tuo Dispetto, Amor Terreno" (Amore Celeste, Amor Terreno) 1:31
2-11 Aria "Me Ne Rido di Tue Glorie" (Amore Celeste) 2:54
2-12 Recitativo "Se Non Ho Forza A Superar Costei" (Amor Terreno) 0:31
2-13 Aria "Orribili, Terribili" (Amor Terreno) 1:51
2-14 Recitativo "Maddalena, Costanza" (Marta, Maddalena) 1:41
2-15 Ritornello - Aria "O Fortunate Lacrime" (Marta) 4:01
2-16 Recitativo "Mio Dio, Mio Redentor" (Maddalena, Fariseo) 0:41
2-17 Ritornello - Aria "Chi Drizzar di Pianta Adulta" (Fariseo) 2:38
2-18 Recitativo "D'Esser Costante, O Mio Giesù" (Maddalena) 1:01
2-19 Aria "Per Il Mar Del Pianto Mio" (Maddalena) 5:22
2-20 Recitativo "L'Atto Intenso, Che Uscito" (Cristo) 1:04
2-21 Ritornello - Aria "Del Senso Soggiogar" (Cristo) 2:02
2-22 Recitativo "De' Miei Dardi Possenti" (Amor Celeste) 0:38
2-23 Aria "Da Quel Strale, Che Stilla Veleno" (Amor Celeste) 6:26
2-24 Ritornello 0:22
2-25 Recitativo "Sempre Da Gl'astri Scende" (Fariseo) 0:58
2-26 Aria "Questi Sono Arcani Ignoti" (Fariseo) 4:22
2-27 Recitativo "Tu, Che Qual Cerva Dalla Sete Oppressa" (Amor Celeste) 0:45
2-28 Recitativo "Cittadini Del Ciel, Spirti Beati" (Amor Celeste) 0:36
2-29 Ritornello - Aria "Su, Lieti Festeggiate" - Ritornello - Aria (2da Parte) "Più Si Stima Far Acquisto" (Amor Celeste) 1:32
2-30 Recitativo "Voi, Che In Mirarmi Oppresso Ogn'or Godete" (Amor Terreno) 0:20
2-31 Aria "Voi Del Tartaro" (Amor Terreno) 1:46
2-32 Recitativo "Va Dunque, Maddalena" (Cristo, Maddalena) 0:26
2-33 Recitativo "L'Ottenuto Perdono" (Maddalena) 1:06
2-34 Ritornello - Aria "Chi Serva la Beltà" (Maddalena) 2:49 `

Исполнители

`Antonio Caldara (1670-1736)

MADDALENA AI PIEDI DI CRISTO
Oratorio à 6, con sinfonia

Emmanuelle de Negri (Maddalena -soprano-)
Maïlys de Villoutreys (Marta -soprano)
Benedetta Mazzucato (Amor Terrestro -contralto-)
Damien Guillon (Amor Celeste -alto-)
Reinoud van Mechelen (Cristo -tenor-)
Riccardo Novaro (Fariseo -baritone-)

Le Banquet Céleste

Damien Guillon (direction musicale)

Recording Date: October 2, 2017 - October 3, 2017
Recording Location: La Borie Studio (France)
Rennes Opera House, Rennes, France
Release Date: September 14, 2018 `

Лог создания рипа

CD1

`Exact Audio Copy V1.3 from 2. September 2016

EAC extraction logfile from 12. May 2019, 12:00

Le Banquet Céleste & Damien Guillon / Antonio Caldara: Maddalena ai Piedi di Cristo

Used drive : HL-DT-STDVD+-RW GT10N Adapter: 1 ID: 1

Read mode : Secure
Utilize accurate stream : Yes
Defeat audio cache : Yes
Make use of C2 pointers : No

Read offset correction : 102
Overread into Lead-In and Lead-Out : No
Fill up missing offset samples with silence : Yes
Delete leading and trailing silent blocks : No
Null samples used in CRC calculations : Yes
Used interface : Native Win32 interface for Win NT & 2000

Used output format : User Defined Encoder
Selected bitrate : 1024 kBit/s
Quality : High
Add ID3 tag : No
Command line compressor : C:Program Files (x86)Exact Audio CopyFLACFLAC.EXE
Additional command line options : -6 -V -T "ARTIST=%artist%" -T "TITLE=%src%" -T "ALBUM=%albumsrc%" -T "DATE=%year%" -T "TRACKNUMBER=%tracknr%" -T "GENRE=%genre%" -T "COMMENT=%comment%" -T "BAND=%albuminterpret%" -T "ALBUMARTIST=%albuminterpret%" -T "COMPOSER=%composer%" %haslyrics%--tag-from-file=LYRICS="%lyricsfile%"%haslyrics% -T "DISCNUMBER=%cdnumber%" -T "TOTALDISCS=%totalcds%" -T "TOTALTRACKS=%numtracks%" %hascover%--picture="%coverfile%"%hascover% %source% -o %dest%

TOC of the extracted CD

Track | Start | Length | Start sector | End sector


1 | 0:00.00 | 2:12.25 | 0 | 9924
2 | 2:12.25 | 2:23.67 | 9925 | 20716
3 | 4:36.17 | 0:30.59 | 20717 | 23025
4 | 5:07.01 | 2:03.28 | 23026 | 32278
5 | 7:10.29 | 0:33.23 | 32279 | 34776
6 | 7:43.52 | 2:35.27 | 34777 | 46428
7 | 10:19.04 | 0:32.55 | 46429 | 48883
8 | 10:51.59 | 0:31.28 | 48884 | 51236
9 | 11:23.12 | 1:42.01 | 51237 | 58887
10 | 13:05.13 | 3:14.51 | 58888 | 73488
11 | 16:19.64 | 0:48.55 | 73489 | 77143
12 | 17:08.44 | 2:50.31 | 77144 | 89924
13 | 19:59.00 | 0:50.68 | 89925 | 93742
14 | 20:49.68 | 3:28.02 | 93743 | 109344
15 | 24:17.70 | 0:18.31 | 109345 | 110725
16 | 24:36.26 | 2:59.62 | 110726 | 124212
17 | 27:36.13 | 0:52.26 | 124213 | 128138
18 | 28:28.39 | 0:24.06 | 128139 | 129944
19 | 28:52.45 | 0:54.61 | 129945 | 134055
20 | 29:47.31 | 3:13.59 | 134056 | 148589
21 | 33:01.15 | 0:47.67 | 148590 | 152181
22 | 33:49.07 | 0:36.72 | 152182 | 154953
23 | 34:26.04 | 6:58.04 | 154954 | 186307
24 | 41:24.08 | 2:50.36 | 186308 | 199093
25 | 44:14.44 | 0:48.09 | 199094 | 202702
26 | 45:02.53 | 4:13.02 | 202703 | 221679
27 | 49:15.55 | 1:16.40 | 221680 | 227419
28 | 50:32.20 | 1:59.64 | 227420 | 236408
29 | 52:32.09 | 0:29.01 | 236409 | 238584
30 | 53:01.10 | 2:14.69 | 238585 | 248703
31 | 55:16.04 | 0:33.29 | 248704 | 251207
32 | 55:49.33 | 3:01.55 | 251208 | 264837
33 | 58:51.13 | 0:34.25 | 264838 | 267412
34 | 59:25.38 | 1:51.15 | 267413 | 275752

Range status and errors

Selected range

Filename C:_RIPsCaldara . Maddalena ai piedi di Cristo . GuillonCaldara . Maddalena ai Piedi di Cristo . Guillon (CD1).wav

Peak level 99.1 %
Extraction speed 1.9 X
Range quality 99.9 %
Test CRC 550B4BF5
Copy CRC 550B4BF5
Copy OK

No errors occurred

AccurateRip summary

Track 1 accurately ripped (confidence 1) 2B542120
Track 2 accurately ripped (confidence 1) 85A2D2A8
Track 3 accurately ripped (confidence 1) 90AEB520
Track 4 accurately ripped (confidence 1) 7B71A659
Track 5 accurately ripped (confidence 1) 11D55D56
Track 6 accurately ripped (confidence 1) 1E1EE8B4
Track 7 accurately ripped (confidence 1) E596E511
Track 8 accurately ripped (confidence 1) 258ED876
Track 9 accurately ripped (confidence 1) 3FE1ACDD
Track 10 accurately ripped (confidence 1) 7A6E472D
Track 11 accurately ripped (confidence 1) 62A0CBEE
Track 12 accurately ripped (confidence 1) 7F8A90FB
Track 13 accurately ripped (confidence 1) ACE8B923
Track 14 accurately ripped (confidence 1) EB4136D0
Track 15 accurately ripped (confidence 1) 13144EAD
Track 16 accurately ripped (confidence 1) 1DCFC1EE
Track 17 accurately ripped (confidence 1) 3A64D8DC
Track 18 accurately ripped (confidence 1) D9239D8F
Track 19 accurately ripped (confidence 1) 600CE777
Track 20 accurately ripped (confidence 1) 18F9588E
Track 21 accurately ripped (confidence 1) 96219ED1
Track 22 accurately ripped (confidence 1) 050E8CAC
Track 23 accurately ripped (confidence 1) E7A9CE69
Track 24 accurately ripped (confidence 1) A9CEC0AB
Track 25 accurately ripped (confidence 1) 6316149D
Track 26 accurately ripped (confidence 1) FBABDB01
Track 27 accurately ripped (confidence 1) FD774797
Track 28 accurately ripped (confidence 1) 5510C524
Track 29 accurately ripped (confidence 1) 24F0A237
Track 30 accurately ripped (confidence 1) 685615F1
Track 31 accurately ripped (confidence 1) 92E026F8
Track 32 accurately ripped (confidence 1) D22A627A
Track 33 accurately ripped (confidence 1) 7BF96243
Track 34 accurately ripped (confidence 1) E9966CE0

All tracks accurately ripped

End of status report

---- CUETools DB Plugin V2.1.6

[CTDB TOCID: Oj8tALV8MVfp6zY0b9Yt4xW9MnI-] found
Submit result: Oj8tALV8MVfp6zY0b9Yt4xW9MnI- has been confirmed
Track | CTDB Status
1 | (9/9) Accurately ripped
2 | (9/9) Accurately ripped
3 | (9/9) Accurately ripped
4 | (9/9) Accurately ripped
5 | (9/9) Accurately ripped
6 | (9/9) Accurately ripped
7 | (9/9) Accurately ripped
8 | (9/9) Accurately ripped
9 | (9/9) Accurately ripped
10 | (9/9) Accurately ripped
11 | (9/9) Accurately ripped
12 | (9/9) Accurately ripped
13 | (9/9) Accurately ripped
14 | (9/9) Accurately ripped
15 | (9/9) Accurately ripped
16 | (9/9) Accurately ripped
17 | (9/9) Accurately ripped
18 | (9/9) Accurately ripped
19 | (9/9) Accurately ripped
20 | (9/9) Accurately ripped
21 | (9/9) Accurately ripped
22 | (9/9) Accurately ripped
23 | (9/9) Accurately ripped
24 | (9/9) Accurately ripped
25 | (9/9) Accurately ripped
26 | (9/9) Accurately ripped
27 | (9/9) Accurately ripped
28 | (9/9) Accurately ripped
29 | (9/9) Accurately ripped
30 | (9/9) Accurately ripped
31 | (9/9) Accurately ripped
32 | (9/9) Accurately ripped
33 | (9/9) Accurately ripped
34 | (9/9) Accurately ripped

==== Log checksum C6646DFC5EC2B6DD3345F967EA3030CFBA9F833AF43CB8A2B939C706883EF4C8 ==== `

CD2

`Exact Audio Copy V1.3 from 2. September 2016

EAC extraction logfile from 12. May 2019, 14:46

Le Banquet Céleste & Damien Guillon / Antonio Caldara: Maddalena ai Piedi di Cristo

Used drive : HL-DT-STDVD+-RW GT10N Adapter: 1 ID: 1

Read mode : Secure
Utilize accurate stream : Yes
Defeat audio cache : Yes
Make use of C2 pointers : No

Read offset correction : 102
Overread into Lead-In and Lead-Out : No
Fill up missing offset samples with silence : Yes
Delete leading and trailing silent blocks : No
Null samples used in CRC calculations : Yes
Used interface : Native Win32 interface for Win NT & 2000

Used output format : User Defined Encoder
Selected bitrate : 1024 kBit/s
Quality : High
Add ID3 tag : No
Command line compressor : C:Program Files (x86)Exact Audio CopyFLACFLAC.EXE
Additional command line options : -6 -V -T "ARTIST=%artist%" -T "TITLE=%src%" -T "ALBUM=%albumsrc%" -T "DATE=%year%" -T "TRACKNUMBER=%tracknr%" -T "GENRE=%genre%" -T "COMMENT=%comment%" -T "BAND=%albuminterpret%" -T "ALBUMARTIST=%albuminterpret%" -T "COMPOSER=%composer%" %haslyrics%--tag-from-file=LYRICS="%lyricsfile%"%haslyrics% -T "DISCNUMBER=%cdnumber%" -T "TOTALDISCS=%totalcds%" -T "TOTALTRACKS=%numtracks%" %hascover%--picture="%coverfile%"%hascover% %source% -o %dest%

TOC of the extracted CD

Track | Start | Length | Start sector | End sector


1 | 0:00.00 | 1:17.66 | 0 | 5840
2 | 1:17.66 | 0:39.33 | 5841 | 8798
3 | 1:57.24 | 2:22.01 | 8799 | 19449
4 | 4:19.25 | 2:35.70 | 19450 | 31144
5 | 6:55.20 | 3:13.35 | 31145 | 45654
6 | 10:08.55 | 1:08.14 | 45655 | 50768
7 | 11:16.69 | 4:48.07 | 50769 | 72375
8 | 16:05.01 | 0:54.55 | 72376 | 76480
9 | 16:59.56 | 2:03.74 | 76481 | 85779
10 | 19:03.55 | 1:31.61 | 85780 | 92665
11 | 20:35.41 | 2:54.60 | 92666 | 105775
12 | 23:30.26 | 0:31.46 | 105776 | 108146
13 | 24:01.72 | 1:51.20 | 108147 | 116491
14 | 25:53.17 | 1:41.27 | 116492 | 124093
15 | 27:34.44 | 4:01.24 | 124094 | 142192
16 | 31:35.68 | 0:41.45 | 142193 | 145312
17 | 32:17.38 | 2:38.24 | 145313 | 157186
18 | 34:55.62 | 1:01.18 | 157187 | 161779
19 | 35:57.05 | 5:22.66 | 161780 | 185995
20 | 41:19.71 | 1:04.32 | 185996 | 190827
21 | 42:24.28 | 2:02.49 | 190828 | 200026
22 | 44:27.02 | 0:38.66 | 200027 | 202942
23 | 45:05.68 | 6:26.53 | 202943 | 231945
24 | 51:32.46 | 0:22.16 | 231946 | 233611
25 | 51:54.62 | 0:58.33 | 233612 | 237994
26 | 52:53.20 | 4:22.20 | 237995 | 257664
27 | 57:15.40 | 0:45.56 | 257665 | 261095
28 | 58:01.21 | 0:36.40 | 261096 | 263835
29 | 58:37.61 | 1:32.05 | 263836 | 270740
30 | 60:09.66 | 0:20.46 | 270741 | 272286
31 | 60:30.37 | 1:46.31 | 272287 | 280267
32 | 62:16.68 | 0:26.55 | 280268 | 282272
33 | 62:43.48 | 1:06.54 | 282273 | 287276
34 | 63:50.27 | 2:49.33 | 287277 | 299984

Range status and errors

Selected range

Filename C:_RIPsCaldara . Maddalena ai piedi di Cristo . GuillonCaldara . Maddalena ai Piedi di Cristo . Guillon (CD2).wav

Peak level 99.1 %
Extraction speed 2.0 X
Range quality 99.9 %
Test CRC C2C18F54
Copy CRC C2C18F54
Copy OK

No errors occurred

AccurateRip summary

Track 1 accurately ripped (confidence 1) 6056E6B1
Track 2 accurately ripped (confidence 1) 3DE6771C
Track 3 accurately ripped (confidence 1) 7B136D9A
Track 4 accurately ripped (confidence 1) F135EE7B
Track 5 accurately ripped (confidence 1) 6FED0202
Track 6 accurately ripped (confidence 1) 8EF68563
Track 7 accurately ripped (confidence 1) EA9F9017
Track 8 accurately ripped (confidence 1) E4FDE34E
Track 9 accurately ripped (confidence 1) 9D46A503
Track 10 accurately ripped (confidence 1) E422592E
Track 11 accurately ripped (confidence 1) 215976C3
Track 12 accurately ripped (confidence 1) 49B77E86
Track 13 accurately ripped (confidence 1) E33AA56E
Track 14 accurately ripped (confidence 1) F8FC12DD
Track 15 accurately ripped (confidence 1) F18C1917
Track 16 accurately ripped (confidence 1) 1A254489
Track 17 accurately ripped (confidence 1) 3A5AFB96
Track 18 accurately ripped (confidence 1) F97CCCB8
Track 19 accurately ripped (confidence 1) 173F14B9
Track 20 accurately ripped (confidence 1) 4D9D23AD
Track 21 accurately ripped (confidence 1) EBAB66FC
Track 22 accurately ripped (confidence 1) 24BAF524
Track 23 accurately ripped (confidence 1) 100B68CF
Track 24 accurately ripped (confidence 1) 9ED4F730
Track 25 accurately ripped (confidence 1) 03CD1B11
Track 26 accurately ripped (confidence 1) 1F360394
Track 27 accurately ripped (confidence 1) EF2BE273
Track 28 accurately ripped (confidence 1) AE4642D8
Track 29 accurately ripped (confidence 1) 6E62733F
Track 30 accurately ripped (confidence 1) 04A92528
Track 31 accurately ripped (confidence 1) F42FE060
Track 32 accurately ripped (confidence 1) 99B50081
Track 33 accurately ripped (confidence 1) AD4D9DEA
Track 34 accurately ripped (confidence 1) 9EE376F7

All tracks accurately ripped

End of status report

---- CUETools DB Plugin V2.1.6

[CTDB TOCID: luhl4eQZFBA9UuJJOk0cWDj4H6M-] found
Submit result: luhl4eQZFBA9UuJJOk0cWDj4H6M- has been confirmed
Track | CTDB Status
1 | (9/9) Accurately ripped
2 | (9/9) Accurately ripped
3 | (9/9) Accurately ripped
4 | (9/9) Accurately ripped
5 | (9/9) Accurately ripped
6 | (9/9) Accurately ripped
7 | (9/9) Accurately ripped
8 | (9/9) Accurately ripped
9 | (9/9) Accurately ripped
10 | (9/9) Accurately ripped
11 | (9/9) Accurately ripped
12 | (9/9) Accurately ripped
13 | (9/9) Accurately ripped
14 | (9/9) Accurately ripped
15 | (9/9) Accurately ripped
16 | (9/9) Accurately ripped
17 | (9/9) Accurately ripped
18 | (9/9) Accurately ripped
19 | (9/9) Accurately ripped
20 | (9/9) Accurately ripped
21 | (9/9) Accurately ripped
22 | (9/9) Accurately ripped
23 | (9/9) Accurately ripped
24 | (9/9) Accurately ripped
25 | (9/9) Accurately ripped
26 | (9/9) Accurately ripped
27 | (9/9) Accurately ripped
28 | (9/9) Accurately ripped
29 | (9/9) Accurately ripped
30 | (9/9) Accurately ripped
31 | (9/9) Accurately ripped
32 | (9/9) Accurately ripped
33 | (9/9) Accurately ripped
34 | (9/9) Accurately ripped

==== Log checksum D1F5F25E1D0B8E33527149CED21771F43F0227E6325048A40778BB58D1E5D0F7 ==== `

Содержание индексной карты (.CUE)

CD1

REM GENRE Barroco REM DATE 2018 REM DISCID E90E5C22 REM COMMENT "ExactAudioCopy v1.3" PERFORMER "Le Banquet Céleste, Damien Guillon (direction musicale) / Emmanuelle de Negri (Maddalena -soprano-), Maïlys de Villoutreys (Marta -soprano), Benedetta Mazzucato (Amor Terrestro -contralto-), Damien Guillon (Amor Celeste -alto-), Reinoud van Mechelen (Cristo -tenor-), Riccardo Novaro (Fariseo -baritone-)" TITLE "Antonio Caldara: Maddalena ai Piedi di Cristo (Disc 1)" REM COMPOSER "Antonio Caldara (1670-1736)" FILE "Caldara - Maddalena ai Piedi di Cristo - Damien Guillon (Disc 1).flac" WAVE TRACK 01 AUDIO TITLE "MADDALENA AI PIEDI DI CRISTO, Oratorio à 6, con sinfonia: PARTE PRIMA. Sinfonia" PERFORMER "Le Banquet Céleste, Damien Guillon" REM COMPOSER "Antonio Caldara" INDEX 01 00:00:00 TRACK 02 AUDIO TITLE "Aria: Dormi, o cara, e formi il sonno (Amor Terreno)" PERFORMER "Le Banquet Céleste, Damien Guillon & Benedetta Mazzucato" REM COMPOSER "Antonio Caldara" INDEX 01 02:12:25 TRACK 03 AUDIO TITLE "Recitativo: Così godea la mente (Amor Terreno)" PERFORMER "Le Banquet Céleste, Damien Guillon & Benedetta Mazzucato" REM COMPOSER "Antonio Caldara" INDEX 01 04:36:17 TRACK 04 AUDIO TITLE "Ritornello & Aria: Deh librate, amoretti lascivetti (Amor Celeste, Amor Terreno)" PERFORMER "Le Banquet Céleste, Damien Guillon & Damien Guillon, Benedetta Mazzucato" REM COMPOSER "Antonio Caldara" INDEX 01 05:07:01 TRACK 05 AUDIO TITLE "Recitativo: Del sonno lusinghiero (Amor Celeste, Amor Terreno)" PERFORMER "Le Banquet Céleste, Damien Guillon & Damien Guillon, Benedetta Mazzucato" REM COMPOSER "Antonio Caldara" INDEX 01 07:10:29 TRACK 06 AUDIO TITLE "Aria: La ragione, s’un’ alma conseglia (Amor Celeste)" PERFORMER "Le Banquet Céleste, Damien Guillon & Damien Guillon" REM COMPOSER "Antonio Caldara" INDEX 01 07:43:52 TRACK 07 AUDIO TITLE "Recitativo: Così sciolta da’ lacci (Amor Celeste, Amor Terreno)" PERFORMER "Le Banquet Céleste, Damien Guillon & Damien Guillon, Benedetta Mazzucato" REM COMPOSER "Antonio Caldara" INDEX 01 10:19:04 TRACK 08 AUDIO TITLE "Duo: Alle vittorie del celeste (Amor Celeste, Amor Terreno)" PERFORMER "Le Banquet Céleste, Damien Guillon & Damien Guillon, Benedetta Mazzucato" REM COMPOSER "Antonio Caldara" INDEX 01 10:51:59 TRACK 09 AUDIO TITLE "Recitativo: Oimè, troppo importuno, chi mi turba i riposi? (Maddalena)" PERFORMER "Le Banquet Céleste, Damien Guillon & Emmanuelle de Negri" REM COMPOSER "Antonio Caldara" INDEX 01 11:23:12 TRACK 10 AUDIO TITLE "Aria: In un bivio è il mio volere (Maddalena)" PERFORMER "Le Banquet Céleste, Damien Guillon & Emmanuelle de Negri" REM COMPOSER "Antonio Caldara" INDEX 01 13:05:13 TRACK 11 AUDIO TITLE "Recitativo: Maddalena, nel cielo (Amor Celeste)" PERFORMER "Le Banquet Céleste, Damien Guillon & Damien Guillon" REM COMPOSER "Antonio Caldara" INDEX 01 16:19:64 TRACK 12 AUDIO TITLE "Ritornello & Aria: Spera, consolati, che fato alcuno (Amor Celeste)" PERFORMER "Le Banquet Céleste, Damien Guillon & Damien Guillon" REM COMPOSER "Antonio Caldara" INDEX 01 17:08:44 TRACK 13 AUDIO TITLE "Recitativo: Troppo dura è la legge (Amor Terreno)" PERFORMER "Le Banquet Céleste, Damien Guillon & Benedetta Mazzucato" REM COMPOSER "Antonio Caldara" INDEX 01 19:59:00 TRACK 14 AUDIO TITLE "Aria: Fin che danzan le grazie sul viso (Amor Terreno)" PERFORMER "Le Banquet Céleste, Damien Guillon & Benedetta Mazzucato" REM COMPOSER "Antonio Caldara" INDEX 01 20:49:68 TRACK 15 AUDIO TITLE "Recitativo: Cieli, che mai risolvo? (Maddalena)" PERFORMER "Le Banquet Céleste, Damien Guillon & Emmanuelle de Negri" REM COMPOSER "Antonio Caldara" INDEX 01 24:17:70 TRACK 16 AUDIO TITLE "Aria: Se nel Ciel splendon le stelle (Maddalena)" PERFORMER "Le Banquet Céleste, Damien Guillon & Emmanuelle de Negri" REM COMPOSER "Antonio Caldara" INDEX 01 24:36:26 TRACK 17 AUDIO TITLE "Recitativo: Germana, al Ciel, deh, volgi (Marta, Maddalena)" PERFORMER "Le Banquet Céleste, Damien Guillon & Maïlys de Villoutreys, Emmanuelle de Negri" REM COMPOSER "Antonio Caldara" INDEX 01 27:36:13 TRACK 18 AUDIO TITLE "Aria: Sospira, piangi, e humile spera (Marta)" PERFORMER "Le Banquet Céleste, Damien Guillon & Maïlys de Villoutreys" REM COMPOSER "Antonio Caldara" INDEX 01 28:28:39 TRACK 19 AUDIO TITLE "Recitativo: Ma queste tante mie (Maddalena, Marta)" PERFORMER "Le Banquet Céleste, Damien Guillon & Emmanuelle de Negri, Maïlys de Villoutreys" REM COMPOSER "Antonio Caldara" INDEX 01 28:52:45 TRACK 20 AUDIO TITLE "Ritornello & Aria: Non sdegna il Ciel le lacrime (Marta)" PERFORMER "Le Banquet Céleste, Damien Guillon & Maïlys de Villoutreys" REM COMPOSER "Antonio Caldara" INDEX 01 29:47:31 TRACK 21 AUDIO TITLE "Recitativo: Omai spezza quel nodo (Maddalena)" PERFORMER "Le Banquet Céleste, Damien Guillon & Emmanuelle de Negri" REM COMPOSER "Antonio Caldara" INDEX 01 33:01:15 TRACK 22 AUDIO TITLE "Aria: Offran lagrime gl’occhi, e ’l cor (Maddalena)" PERFORMER "Le Banquet Céleste, Damien Guillon & Emmanuelle de Negri" REM COMPOSER "Antonio Caldara" INDEX 01 33:49:07 TRACK 23 AUDIO TITLE "Aria: Pompe inutili, che il fasto animate (Maddalena)" PERFORMER "Le Banquet Céleste, Damien Guillon & Emmanuelle de Negri" REM COMPOSER "Antonio Caldara" INDEX 01 34:26:04 TRACK 24 AUDIO TITLE "Recitativo: E voi, dorati crini, tempo fu, cari ceppi, ed aurei (Maddalena, Amor Terreno, Amor Celeste)" PERFORMER "Le Banquet Céleste, Damien Guillon & Emmanuelle de Negri, Benedetta Mazzucato, Damien Guillon" REM COMPOSER "Antonio Caldara" INDEX 01 41:24:08 TRACK 25 AUDIO TITLE "Recitativo: Maddalena, coraggio! (Maddalena)" PERFORMER "Le Banquet Céleste, Damien Guillon & Emmanuelle de Negri" REM COMPOSER "Antonio Caldara" INDEX 01 44:14:44 TRACK 26 AUDIO TITLE "Aria: Diletti, non più vanto (Maddalena)" PERFORMER "Le Banquet Céleste, Damien Guillon & Emmanuelle de Negri" REM COMPOSER "Antonio Caldara" INDEX 01 45:02:53 TRACK 27 AUDIO TITLE "Recitativo: Dell’anima tua grande (Marta, Fariseo)" PERFORMER "Le Banquet Céleste, Damien Guillon & Maïlys de Villoutreys, Riccardo Novaro" REM COMPOSER "Antonio Caldara" INDEX 01 49:15:55 TRACK 28 AUDIO TITLE "Ritornello & Aria: Dove il Re sapiente eresse (Fariseo)" PERFORMER "Le Banquet Céleste, Damien Guillon & Riccardo Novaro" REM COMPOSER "Antonio Caldara" INDEX 01 50:32:20 TRACK 29 AUDIO TITLE "Recitativo: È Cristo il vero Tempio (Marta)" PERFORMER "Le Banquet Céleste, Damien Guillon & Maïlys de Villoutreys" REM COMPOSER "Antonio Caldara" INDEX 01 52:32:09 TRACK 30 AUDIO TITLE "Aria: Vattene, corri, vola (Marta)" PERFORMER "Le Banquet Céleste, Damien Guillon & Maïlys de Villoutreys" REM COMPOSER "Antonio Caldara" INDEX 01 53:01:10 TRACK 31 AUDIO TITLE "Recitativo: Marta, ho risolto, in seno (Maddalena)" PERFORMER "Le Banquet Céleste, Damien Guillon & Emmanuelle de Negri" REM COMPOSER "Antonio Caldara" INDEX 01 55:16:04 TRACK 32 AUDIO TITLE "Ritornello & Aria: Voglio piangere, sinche frangere (Maddalena)" PERFORMER "Le Banquet Céleste, Damien Guillon & Emmanuelle de Negri" REM COMPOSER "Antonio Caldara" INDEX 01 55:49:33 TRACK 33 AUDIO TITLE "Recitativo: A tuo dispetto, Amor terreno, fi a Maddalena pentita (Amor Celeste, Amor Terreno)" PERFORMER "Le Banquet Céleste, Damien Guillon & Damien Guillon, Benedetta Mazzucato" REM COMPOSER "Antonio Caldara" INDEX 01 58:51:13 TRACK 34 AUDIO TITLE "Duo: La mia virtude, il mio valor è forte (Amor Celeste, Amor Terreno)" PERFORMER "Le Banquet Céleste, Damien Guillon & Damien Guillon, Benedetta Mazzucato" REM COMPOSER "Antonio Caldara" INDEX 01 59:25:38

CD2

REM GENRE Barroco REM DATE 2018 REM DISCID 040F9F22 REM COMMENT "ExactAudioCopy v1.3" PERFORMER "Le Banquet Céleste, Damien Guillon (direction musicale) / Emmanuelle de Negri (Maddalena -soprano-), Maïlys de Villoutreys (Marta -soprano), Benedetta Mazzucato (Amor Terrestro -contralto-), Damien Guillon (Amor Celeste -alto-), Reinoud van Mechelen (Cristo -tenor-), Riccardo Novaro (Fariseo -baritone-)" TITLE "Antonio Caldara: Maddalena ai Piedi di Cristo (Disc 2)" REM COMPOSER "Antonio Caldara (1670-1736)" FILE "Caldara - Maddalena ai Piedi di Cristo - Damien Guillon (Disc 2).flac" WAVE TRACK 01 AUDIO TITLE "PARTE SECONDA. Sinfonia" PERFORMER "Le Banquet Céleste, Damien Guillon" REM COMPOSER "Antonio Caldara" INDEX 01 00:00:00 TRACK 02 AUDIO TITLE "Recitativo: Donna grande, e fastosa (Fariseo)" PERFORMER "Le Banquet Céleste, Damien Guillon & Riccardo Novaro" REM COMPOSER "Antonio Caldara" INDEX 01 01:17:66 TRACK 03 AUDIO TITLE "Aria: Parti, che di virtù (Fariseo)" PERFORMER "Le Banquet Céleste, Damien Guillon & Riccardo Novaro" REM COMPOSER "Antonio Caldara" INDEX 01 01:57:24 TRACK 04 AUDIO TITLE "Recitativo: Cingan pure quest’alma (Maddalena, Cristo, Fariseo)" PERFORMER "Le Banquet Céleste, Damien Guillon & Emmanuelle de Negri, Reinoud van Mechelen, Riccardo Novaro" REM COMPOSER "Antonio Caldara" INDEX 01 04:19:25 TRACK 05 AUDIO TITLE "Aria: Chi con sua cetra (Maddalena)" PERFORMER "Le Banquet Céleste, Damien Guillon & Emmanuelle de Negri" REM COMPOSER "Antonio Caldara" INDEX 01 06:55:20 TRACK 06 AUDIO TITLE "Recitativo: Ma, se quest’huom riceve (Fariseo, Maddalena)" PERFORMER "Le Banquet Céleste, Damien Guillon & Riccardo Novaro, Emmanuelle de Negri" REM COMPOSER "Antonio Caldara" INDEX 01 10:08:55 TRACK 07 AUDIO TITLE "Aria: In lagrime stemprato (Maddalena)" PERFORMER "Le Banquet Céleste, Damien Guillon & Emmanuelle de Negri" REM COMPOSER "Antonio Caldara" INDEX 01 11:16:69 TRACK 08 AUDIO TITLE "Recitativo: Oh Ciel, chi vide mai (Amor Celeste, Amor Terreno, Cristo)" PERFORMER "Le Banquet Céleste, Damien Guillon & Damien Guillon, Benedetta Mazzucato, Reinoud van Mechelen" REM COMPOSER "Antonio Caldara" INDEX 01 16:05:01 TRACK 09 AUDIO TITLE "Ritornello & Aria: Ride il Ciel e gl’astri brillano (Cristo)" PERFORMER "Le Banquet Céleste, Damien Guillon & Reinoud van Mechelen" REM COMPOSER "Antonio Caldara" INDEX 01 16:59:56 TRACK 10 AUDIO TITLE "Recitativo: A tuo dispetto, Amor terreno (Amor Celeste, Amor Terreno)" PERFORMER "Le Banquet Céleste, Damien Guillon & Damien Guillon, Benedetta Mazzucato" REM COMPOSER "Antonio Caldara" INDEX 01 19:03:55 TRACK 11 AUDIO TITLE "Aria: Me ne rido di tue glorie (Amor Celeste)" PERFORMER "Le Banquet Céleste, Damien Guillon & Damien Guillon" REM COMPOSER "Antonio Caldara" INDEX 01 20:35:41 TRACK 12 AUDIO TITLE "Recitativo: Se non ho forza a superar costei (Amor Terreno)" PERFORMER "Le Banquet Céleste, Damien Guillon & Benedetta Mazzucato" REM COMPOSER "Antonio Caldara" INDEX 01 23:30:26 TRACK 13 AUDIO TITLE "Aria: Orribili, terribili (Amor Terreno)" PERFORMER "Le Banquet Céleste, Damien Guillon & Benedetta Mazzucato" REM COMPOSER "Antonio Caldara" INDEX 01 24:01:72 TRACK 14 AUDIO TITLE "Recitativo: Maddalena, costanza (Marta, Maddalena)" PERFORMER "Le Banquet Céleste, Damien Guillon & Maïlys de Villoutreys, Emmanuelle de Negri" REM COMPOSER "Antonio Caldara" INDEX 01 25:53:17 TRACK 15 AUDIO TITLE "Ritornello & Aria: O fortunate lacrime (Marta)" PERFORMER "Le Banquet Céleste, Damien Guillon & Maïlys de Villoutreys" REM COMPOSER "Antonio Caldara" INDEX 01 27:34:44 TRACK 16 AUDIO TITLE "Recitativo: Mio Dio, mio Redentor (Maddalena, Fariseo)" PERFORMER "Le Banquet Céleste, Damien Guillon & Emmanuelle de Negri, Riccardo Novaro" REM COMPOSER "Antonio Caldara" INDEX 01 31:35:68 TRACK 17 AUDIO TITLE "Ritornello & Aria: Chi drizzar di pianta adulta (Fariseo)" PERFORMER "Le Banquet Céleste, Damien Guillon & Riccardo Novaro" REM COMPOSER "Antonio Caldara" INDEX 01 32:17:38 TRACK 18 AUDIO TITLE "Recitativo: D’esser costante, o mio Giesù (Maddalena)" PERFORMER "Le Banquet Céleste, Damien Guillon & Emmanuelle de Negri" REM COMPOSER "Antonio Caldara" INDEX 01 34:55:62 TRACK 19 AUDIO TITLE "Aria: Per il mar del pianto mio (Maddalena)" PERFORMER "Le Banquet Céleste, Damien Guillon & Emmanuelle de Negri" REM COMPOSER "Antonio Caldara" INDEX 01 35:57:05 TRACK 20 AUDIO TITLE "Recitativo: L’atto intenso, che uscito (Cristo)" PERFORMER "Le Banquet Céleste, Damien Guillon & Reinoud van Mechelen" REM COMPOSER "Antonio Caldara" INDEX 01 41:19:71 TRACK 21 AUDIO TITLE "Ritornello & Aria: Del senso soggiogar (Cristo)" PERFORMER "Le Banquet Céleste, Damien Guillon & Reinoud van Mechelen" REM COMPOSER "Antonio Caldara" INDEX 01 42:24:28 TRACK 22 AUDIO TITLE "Recitativo: De’ miei dardi possenti (Amor Celeste)" PERFORMER "Le Banquet Céleste, Damien Guillon & Damien Guillon" REM COMPOSER "Antonio Caldara" INDEX 01 44:27:02 TRACK 23 AUDIO TITLE "Aria: Da quel strale, che stilla veleno (Amor Celeste)" PERFORMER "Le Banquet Céleste, Damien Guillon & Damien Guillon" REM COMPOSER "Antonio Caldara" INDEX 01 45:05:68 TRACK 24 AUDIO TITLE "Ritornello" PERFORMER "Le Banquet Céleste, Damien Guillon" REM COMPOSER "Antonio Caldara" INDEX 01 51:32:46 TRACK 25 AUDIO TITLE "Recitativo: Sempre da gl’astri scende (Fariseo)" PERFORMER "Le Banquet Céleste, Damien Guillon & Riccardo Novaro" REM COMPOSER "Antonio Caldara" INDEX 01 51:54:62 TRACK 26 AUDIO TITLE "Aria: Questi sono arcani ignoti (Fariseo)" PERFORMER "Le Banquet Céleste, Damien Guillon & Riccardo Novaro" REM COMPOSER "Antonio Caldara" INDEX 01 52:53:20 TRACK 27 AUDIO TITLE "Recitativo: Tu, che qual cerva dalla sete oppressa (Cristo)" PERFORMER "Le Banquet Céleste, Damien Guillon & Reinoud van Mechelen" REM COMPOSER "Antonio Caldara" INDEX 01 57:15:40 TRACK 28 AUDIO TITLE "Recitativo: Cittadini del Ciel, spirti beati (Amor Celeste)" PERFORMER "Le Banquet Céleste, Damien Guillon & Damien Guillon" REM COMPOSER "Antonio Caldara" INDEX 01 58:01:21 TRACK 29 AUDIO TITLE "Ritornello & Aria: Su, lieti festeggiate (Amor Celeste)" PERFORMER "Le Banquet Céleste, Damien Guillon & Damien Guillon" REM COMPOSER "Antonio Caldara" INDEX 01 58:37:61 TRACK 30 AUDIO TITLE "Recitativo: Voi, Che in mirarmi oppresso ogn’or godete (Amor Terreno)" PERFORMER "Le Banquet Céleste, Damien Guillon & Benedetta Mazzucato" REM COMPOSER "Antonio Caldara" INDEX 01 60:09:66 TRACK 31 AUDIO TITLE "Aria: Voi del tartaro (Amor Terreno)" PERFORMER "Le Banquet Céleste, Damien Guillon & Benedetta Mazzucato" REM COMPOSER "Antonio Caldara" INDEX 01 60:30:37 TRACK 32 AUDIO TITLE "Recitativo: Va dunque, Maddalena (Cristo, Maddalena)" PERFORMER "Le Banquet Céleste, Damien Guillon & Reinoud van Mechelen, Emmanuelle de Negri" REM COMPOSER "Antonio Caldara" INDEX 01 62:16:68 TRACK 33 AUDIO TITLE "Recitativo: L’ottenuto perdono (Maddalena)" PERFORMER "Le Banquet Céleste, Damien Guillon & Emmanuelle de Negri" REM COMPOSER "Antonio Caldara" INDEX 01 62:43:48 TRACK 34 AUDIO TITLE "Ritornello & Aria: Chi serva la belta (Maddalena)" PERFORMER "Le Banquet Céleste, Damien Guillon & Emmanuelle de Negri" REM COMPOSER "Antonio Caldara" INDEX 01 63:50:27

About

Caldara was born on the Venetian lagoon towards 1670. He composed Catalonia’s very first opera, Il più bel nome (1708), which he performed in Barcelona upon request from his future employer King Charles VI – near to whom he settled down in Vienna in 1716. Caldara was a loquacious composer with three thousands works to his name. He died in Vienna in 1736, in the same Kärtnerstrasse as Vivaldi…and with the same level of precariousness. Johann Mattheson used to write that in the same way as Handel and the Red Priest, Caldara boasted “great knowledge of human feelings and emotions”. Far from being superficial, his inherent musical style demonstrated a high level of Baroque rhetoric and artifice. Caldara was always able to suspend his graceful pieces in time…[…] The genre was born immediately after the Counter-Reformation and illustrated by the Romans Carissimi and Landi. It was initially sung in Latin and performed as part of pious society gatherings. The Maddalena is however an oratorio volgare, meaning it is recited in Italian […]. In the Maddalena, the six protagonists share the Land and Sky. The characters include Marthe, Madeleine and a Pharisee, Jesus, Earthly Love and Celestial Love. They share thirty-three harmonies and ensembles, alternating between recitatives and arias. Vincent Borel


More at ibit.to
And ibit.uno
And ibit.ws

Comments

Files

Caldara - Maddalena ai Piedi di Cristo - Guillon (2018)ScansCaldara . Maddalena ai Piedi di Cristo . Guillon -indices.txt 4.1 kB
Caldara - Maddalena ai Piedi di Cristo - Guillon (2018)Original cueCaldara . Maddalena ai Piedi di Cristo . Guillon (CD2).cue 6.7 kB
Caldara - Maddalena ai Piedi di Cristo - Guillon (2018)Original cueCaldara . Maddalena ai Piedi di Cristo . Guillon (CD1).cue 6.8 kB
Caldara - Maddalena ai Piedi di Cristo - Guillon (2018)CD2Caldara - Maddalena ai Piedi di Cristo - Damien Guillon (Disc 2).cue 8.0 kB
Caldara - Maddalena ai Piedi di Cristo - Guillon (2018)CD1Caldara - Maddalena ai Piedi di Cristo - Damien Guillon (Disc 1).cue 8.4 kB
Caldara - Maddalena ai Piedi di Cristo - Guillon (2018)CD1Caldara - Maddalena ai Piedi di Cristo - Damien Guillon (Disc 1).log 16 kB
Caldara - Maddalena ai Piedi di Cristo - Guillon (2018)CD2Caldara - Maddalena ai Piedi di Cristo - Damien Guillon (Disc 2).log 16 kB
Caldara - Maddalena ai Piedi di Cristo - Guillon (2018)ScansCaldara . Maddalena ai Piedi di Cristo . Guillon -cover-600x600.jpg 79 kB
Caldara - Maddalena ai Piedi di Cristo - Guillon (2018)CoversBack 2.jpg 115 kB
Caldara - Maddalena ai Piedi di Cristo - Guillon (2018)ScansCaldara . Maddalena ai Piedi di Cristo . Guillon -tras.jpg 139 kB
Caldara - Maddalena ai Piedi di Cristo - Guillon (2018)CoversFront 2.jpg 150 kB
Caldara - Maddalena ai Piedi di Cristo - Guillon (2018)CoversBack 3.jpg 157 kB
Caldara - Maddalena ai Piedi di Cristo - Guillon (2018)ScansCaldara . Maddalena ai Piedi di Cristo . Guillon -tras-[cartone].jpg 175 kB
Caldara - Maddalena ai Piedi di Cristo - Guillon (2018)CoversBack.jpg 198 kB
Caldara - Maddalena ai Piedi di Cristo - Guillon (2018)CoversFront 3.jpg 210 kB
Caldara - Maddalena ai Piedi di Cristo - Guillon (2018)CoversFront.jpg 357 kB
Caldara - Maddalena ai Piedi di Cristo - Guillon (2018)ScansCaldara . Maddalena ai Piedi di Cristo . Guillon -cover-1400x1400.jpg 359 kB
Caldara - Maddalena ai Piedi di Cristo - Guillon (2018)ScansCaldara . Maddalena ai Piedi di Cristo . Guillon -booklet.pdf 1.2 MB
Caldara - Maddalena ai Piedi di Cristo - Guillon (2018)Front.jpg 6.3 MB
Caldara - Maddalena ai Piedi di Cristo - Guillon (2018)CD1Caldara - Maddalena ai Piedi di Cristo - Damien Guillon (Disc 1).flac 329 MB
Caldara - Maddalena ai Piedi di Cristo - Guillon (2018)CD2Caldara - Maddalena ai Piedi di Cristo - Damien Guillon (Disc 2).flac 368 MB

Stream

Downloading Seeding Caldara - Maddalena ai Piedi di Cristo - Guillon (2018) from to 0 peers.
of
0 b/s / ↗0 b/s